<?xml version="1.0" standalone="no"?>
  <!DOCTYPE svg PUBLIC "-//W3C//DTD SVG 1.1//EN" "http://www.w3.org/Graphics/SVG/1.1/DTD/svg11.dtd" >
  <svg>
  <metadata>
  Created by TNB FontFinisher
  </metadata>
  <defs>
  <font id="MarkelSans-Bold"  horiz-adv-x="1897" vert-adv-y="1141" >
    <font-face
  <font id="MarkelSans-Bold"  horiz-adv-x="1897" vert-adv-y="1141" >
      font-style="Regular"
      font-weight="700"
      font-stretch="normal"
      panose-1="2 11 8 4 3 3 2 2 2 4"
      units-per-em="1000"
      ascent="936"
      descent="-214"
    />
      <missing-glyph  d="M538 70L32 70L32 650L538 650ZM89 600L89 120L480 120L480 600Z"  horiz-adv-x="569" vert-adv-y="1000"  /> 
      <glyph glyph-name="space" unicode="&#x20;" d=""  horiz-adv-x="270" vert-adv-y="1000"  />
      <glyph glyph-name="A" unicode="&#x41;" d="M720 0L530 0L482 147L234 147L185 0L0 0L257 684L469 684ZM360 525L276 273L442 273Z"  horiz-adv-x="720" vert-adv-y="1000"  />
      <glyph glyph-name="Aacute" unicode="&#xc1;" d="M505 920L513 808L290 722L262 811ZM720 0L530 0L482 147L234 147L185 0L0 0L257 684L469 684ZM360 525L276 273L442 273Z"  horiz-adv-x="720" vert-adv-y="1000"  />
      <glyph glyph-name="Abreve" unicode="&#x102;" d="M360 718Q278 718 232 754Q186 789 186 852L283 863Q283 804 360 804Q437 804 437 863L533 852Q533 789 487 754Q441 718 360 718ZM720 0L530 0L482 147L234 147L185 0L0 0L257 684L469 684ZM360 525L276 273L442 273Z"  horiz-adv-x="720" vert-adv-y="1000"  />
      <glyph glyph-name="Acircumflex" unicode="&#xc2;" d="M511 722L355 796L199 721L173 802L355 912L545 801ZM720 0L530 0L482 147L234 147L185 0L0 0L257 684L469 684ZM360 525L276 273L442 273Z"  horiz-adv-x="720" vert-adv-y="1000"  />
      <glyph glyph-name="Adieresis" unicode="&#xc4;" d="M236 734Q198 734 181 741Q163 748 159 765Q154 781 154 809Q154 838 159 854Q163 870 181 877Q198 884 236 884Q275 884 292 877Q309 870 314 854Q318 838 318 809Q318 781 314 765Q309 748 292 741Q275 734 236 734ZM483 734Q445 734 428 741Q410 748 406 765Q401 781 401 809Q401 838 406 854Q410 870 428 877Q445 884 483 884Q522 884 539 877Q556 870 561 854Q565 838 565 809Q565 781 561 765Q556 748 539 741Q522 734 483 734ZM720 0L530 0L482 147L234 147L185 0L0 0L257 684L469 684ZM360 525L276 273L442 273Z"  horiz-adv-x="720" vert-adv-y="1000"  />
      <glyph glyph-name="Agrave" unicode="&#xc0;" d="M214 920L457 811L429 722L206 808ZM720 0L530 0L482 147L234 147L185 0L0 0L257 684L469 684ZM360 525L276 273L442 273Z"  horiz-adv-x="720" vert-adv-y="1000"  />
      <glyph glyph-name="Amacron" unicode="&#x100;" d="M196 841L523 841L523 749L196 749ZM720 0L530 0L482 147L234 147L185 0L0 0L257 684L469 684ZM360 525L276 273L442 273Z"  horiz-adv-x="720" vert-adv-y="1000"  />
      <glyph glyph-name="Aogonek" unicode="&#x104;" d="M642 -131Q671 -131 692 -127L701 -197Q673 -207 622 -207Q560 -207 523 -185Q486 -163 486 -126Q486 -53 565 0L530 0L482 147L234 147L185 0L0 0L257 684L469 684L720 0L690 0Q650 -19 625 -47Q599 -74 599 -99Q599 -131 642 -131ZM360 525L276 273L442 273Z"  horiz-adv-x="720" vert-adv-y="1000"  />
      <glyph glyph-name="Aring" unicode="&#xc5;" d="M359 712Q306 712 273 739Q240 765 240 811Q240 855 273 883Q306 910 359 910Q415 910 447 883Q479 855 479 811Q479 767 447 740Q415 712 359 712ZM359 852Q315 852 315 811Q315 771 359 771Q405 771 405 811Q405 852 359 852ZM720 0L530 0L482 147L234 147L185 0L0 0L257 684L469 684ZM360 525L276 273L442 273Z"  horiz-adv-x="720" vert-adv-y="1000"  />
      <glyph glyph-name="Atilde" unicode="&#xc3;" d="M290 776Q265 776 243 764Q220 752 204 739L170 818Q191 840 223 857Q255 874 288 874Q321 874 347 865Q373 856 394 847Q415 838 434 838Q484 838 512 874L547 799Q531 771 500 756Q468 741 430 741Q398 741 376 750Q353 759 334 768Q314 776 290 776ZM720 0L530 0L482 147L234 147L185 0L0 0L257 684L469 684ZM360 525L276 273L442 273Z"  horiz-adv-x="720" vert-adv-y="1000"  />
      <glyph glyph-name="AE" unicode="&#xc6;" d="M319 684L965 684L965 550L605 550L626 419L930 419L930 285L647 285L671 134L965 134L965 0L510 0L487 147L253 147L190 0L-1 0ZM425 551L307 273L468 273Z"  horiz-adv-x="1013" vert-adv-y="1000"  />
      <glyph glyph-name="B" unicode="&#x42;" d="M520 360Q631 329 631 177Q631 95 573 48Q515 0 414 0L67 0L67 684L360 684Q491 684 548 643Q604 601 604 506Q604 449 585 415Q566 381 520 360ZM354 558L248 558L248 405L352 405Q396 405 413 422Q429 438 429 483Q429 526 413 542Q397 558 354 558ZM248 125L364 125Q414 125 433 142Q451 158 451 203Q451 250 434 267Q417 284 370 284L248 284Z"  horiz-adv-x="660" vert-adv-y="1000"  />
      <glyph glyph-name="C" unicode="&#x43;" d="M371 -11Q279 -11 217 5Q155 20 119 56Q82 91 67 152Q51 213 51 304L51 380Q51 496 82 565Q112 634 181 665Q249 695 363 695Q489 695 586 671L567 535Q515 546 463 553Q410 559 366 559Q312 559 284 545Q255 530 245 492Q234 453 234 380L234 304Q234 229 245 190Q255 151 285 138Q314 124 371 124Q416 124 469 131Q522 137 570 148L588 13Q542 1 487 -5Q431 -11 371 -11Z"  horiz-adv-x="621" vert-adv-y="1000"  />
      <glyph glyph-name="Cacute" unicode="&#x106;" d="M481 808L258 722L230 811L473 920ZM371 -11Q279 -11 217 5Q155 20 119 56Q82 91 67 152Q51 213 51 304L51 380Q51 496 82 565Q112 634 181 665Q249 695 363 695Q489 695 586 671L567 535Q515 546 463 553Q410 559 366 559Q312 559 284 545Q255 530 245 492Q234 453 234 380L234 304Q234 229 245 190Q255 151 285 138Q314 124 371 124Q416 124 469 131Q522 137 570 148L588 13Q542 1 487 -5Q431 -11 371 -11Z"  horiz-adv-x="621" vert-adv-y="1000"  />
      <glyph glyph-name="Ccaron" unicode="&#x10c;" d="M541 828L358 718L169 829L203 908L358 834L515 909ZM371 -11Q279 -11 217 5Q155 20 119 56Q82 91 67 152Q51 213 51 304L51 380Q51 496 82 565Q112 634 181 665Q249 695 363 695Q489 695 586 671L567 535Q515 546 463 553Q410 559 366 559Q312 559 284 545Q255 530 245 492Q234 453 234 380L234 304Q234 229 245 190Q255 151 285 138Q314 124 371 124Q416 124 469 131Q522 137 570 148L588 13Q542 1 487 -5Q431 -11 371 -11Z"  horiz-adv-x="621" vert-adv-y="1000"  />
      <glyph glyph-name="Ccedilla" unicode="&#xc7;" d="M386 -11L380 -32Q447 -34 472 -50Q497 -65 497 -98L497 -137Q497 -177 468 -192Q439 -207 359 -207Q330 -207 303 -205Q276 -202 237 -196L255 -124Q308 -136 360 -136Q373 -136 377 -134Q380 -131 380 -124L380 -106Q380 -97 376 -95Q372 -93 358 -93Q351 -93 331 -96L272 -82L297 -8Q204 0 150 32Q96 64 74 130Q51 196 51 304L51 380Q51 496 82 565Q112 634 181 665Q249 695 363 695Q489 695 586 671L567 535Q515 546 463 553Q410 559 366 559Q312 559 284 545Q255 530 245 492Q234 453 234 380L234 304Q234 229 245 190Q255 151 285 138Q314 124 371 124Q416 124 469 131Q522 137 570 148L588 13Q545 2 494 -4Q442 -10 386 -11Z"  horiz-adv-x="621" vert-adv-y="1000"  />
      <glyph glyph-name="Ccircumflex" unicode="&#x108;" d="M351 796L195 721L169 802L351 912L541 801L507 722ZM371 -11Q279 -11 217 5Q155 20 119 56Q82 91 67 152Q51 213 51 304L51 380Q51 496 82 565Q112 634 181 665Q249 695 363 695Q489 695 586 671L567 535Q515 546 463 553Q410 559 366 559Q312 559 284 545Q255 530 245 492Q234 453 234 380L234 304Q234 229 245 190Q255 151 285 138Q314 124 371 124Q416 124 469 131Q522 137 570 148L588 13Q542 1 487 -5Q431 -11 371 -11Z"  horiz-adv-x="621" vert-adv-y="1000"  />
      <glyph glyph-name="Cdotaccent" unicode="&#x10a;" d="M355 734Q317 734 300 741Q282 748 278 765Q273 781 273 809Q273 838 278 854Q282 870 300 877Q317 884 355 884Q394 884 411 877Q428 870 433 854Q437 838 437 809Q437 781 433 765Q428 748 411 741Q394 734 355 734ZM371 -11Q279 -11 217 5Q155 20 119 56Q82 91 67 152Q51 213 51 304L51 380Q51 496 82 565Q112 634 181 665Q249 695 363 695Q489 695 586 671L567 535Q515 546 463 553Q410 559 366 559Q312 559 284 545Q255 530 245 492Q234 453 234 380L234 304Q234 229 245 190Q255 151 285 138Q314 124 371 124Q416 124 469 131Q522 137 570 148L588 13Q542 1 487 -5Q431 -11 371 -11Z"  horiz-adv-x="621" vert-adv-y="1000"  />
      <glyph glyph-name="D" unicode="&#x44;" d="M347 0L67 0L67 684L351 684Q462 684 527 655Q592 626 621 560Q649 493 649 380L649 304Q649 214 635 155Q621 96 588 62Q554 28 495 14Q436 0 347 0ZM248 550L248 134L340 134Q394 134 421 147Q448 159 457 196Q466 233 466 306L466 380Q466 436 462 470Q457 503 445 521Q432 538 408 544Q383 550 342 550Z"  horiz-adv-x="700" vert-adv-y="1000"  />
      <glyph glyph-name="Eth" unicode="&#xd0;" d="M64 684L348 684Q459 684 524 655Q589 626 618 560Q646 493 646 380L646 304Q646 214 632 155Q618 96 585 62Q551 28 492 14Q433 0 344 0L64 0L64 280L-3 280L-3 407L64 407ZM463 306L463 380Q463 436 459 470Q454 503 442 521Q429 538 405 544Q380 550 339 550L245 550L245 407L370 407L370 280L245 280L245 134L337 134Q391 134 418 147Q445 159 454 196Q463 233 463 306Z"  horiz-adv-x="700" vert-adv-y="1000"  />
      <glyph glyph-name="Dcaron" unicode="&#x10e;" d="M513 828L330 718L141 829L175 908L330 834L487 909ZM347 0L67 0L67 684L351 684Q462 684 527 655Q592 626 621 560Q649 493 649 380L649 304Q649 214 635 155Q621 96 588 62Q554 28 495 14Q436 0 347 0ZM248 550L248 134L340 134Q394 134 421 147Q448 159 457 196Q466 233 466 306L466 380Q466 436 462 470Q457 503 445 521Q432 538 408 544Q383 550 342 550Z"  horiz-adv-x="700" vert-adv-y="1000"  />
      <glyph glyph-name="Dcroat" unicode="&#x110;" d="M64 684L348 684Q459 684 524 655Q589 626 618 560Q646 493 646 380L646 304Q646 214 632 155Q618 96 585 62Q551 28 492 14Q433 0 344 0L64 0L64 280L-3 280L-3 407L64 407ZM463 306L463 380Q463 436 459 470Q454 503 442 521Q429 538 405 544Q380 550 339 550L245 550L245 407L370 407L370 280L245 280L245 134L337 134Q391 134 418 147Q445 159 454 196Q463 233 463 306Z"  horiz-adv-x="700" vert-adv-y="1000"  />
      <glyph glyph-name="E" unicode="&#x45;" d="M565 0L67 0L67 684L565 684L565 550L248 550L248 419L529 419L529 285L248 285L248 134L565 134Z"  horiz-adv-x="613" vert-adv-y="1000"  />
      <glyph glyph-name="Eacute" unicode="&#xc9;" d="M468 808L245 722L217 811L460 920ZM565 0L67 0L67 684L565 684L565 550L248 550L248 419L529 419L529 285L248 285L248 134L565 134Z"  horiz-adv-x="613" vert-adv-y="1000"  />
      <glyph glyph-name="Ecaron" unicode="&#x11a;" d="M502 828L319 718L130 829L164 908L319 834L476 909ZM565 0L67 0L67 684L565 684L565 550L248 550L248 419L529 419L529 285L248 285L248 134L565 134Z"  horiz-adv-x="613" vert-adv-y="1000"  />
      <glyph glyph-name="Ecircumflex" unicode="&#xca;" d="M312 796L156 721L130 802L312 912L502 801L468 722ZM565 0L67 0L67 684L565 684L565 550L248 550L248 419L529 419L529 285L248 285L248 134L565 134Z"  horiz-adv-x="613" vert-adv-y="1000"  />
      <glyph glyph-name="Edieresis" unicode="&#xcb;" d="M193 734Q155 734 138 741Q120 748 116 765Q111 781 111 809Q111 838 116 854Q120 870 138 877Q155 884 193 884Q232 884 249 877Q266 870 271 854Q275 838 275 809Q275 781 271 765Q266 748 249 741Q232 734 193 734ZM440 734Q402 734 385 741Q367 748 363 765Q358 781 358 809Q358 838 363 854Q367 870 385 877Q402 884 440 884Q479 884 496 877Q513 870 518 854Q522 838 522 809Q522 781 518 765Q513 748 496 741Q479 734 440 734ZM565 0L67 0L67 684L565 684L565 550L248 550L248 419L529 419L529 285L248 285L248 134L565 134Z"  horiz-adv-x="613" vert-adv-y="1000"  />
      <glyph glyph-name="Edotaccent" unicode="&#x116;" d="M316 734Q278 734 261 741Q243 748 239 765Q234 781 234 809Q234 838 239 854Q243 870 261 877Q278 884 316 884Q355 884 372 877Q389 870 394 854Q398 838 398 809Q398 781 394 765Q389 748 372 741Q355 734 316 734ZM565 0L67 0L67 684L565 684L565 550L248 550L248 419L529 419L529 285L248 285L248 134L565 134Z"  horiz-adv-x="613" vert-adv-y="1000"  />
      <glyph glyph-name="Egrave" unicode="&#xc8;" d="M414 811L386 722L163 808L171 920ZM565 0L67 0L67 684L565 684L565 550L248 550L248 419L529 419L529 285L248 285L248 134L565 134Z"  horiz-adv-x="613" vert-adv-y="1000"  />
      <glyph glyph-name="Emacron" unicode="&#x112;" d="M480 749L153 749L153 841L480 841ZM565 0L67 0L67 684L565 684L565 550L248 550L248 419L529 419L529 285L248 285L248 134L565 134Z"  horiz-adv-x="613" vert-adv-y="1000"  />
      <glyph glyph-name="Eogonek" unicode="&#x118;" d="M565 684L565 550L248 550L248 419L529 419L529 285L248 285L248 134L565 134L565 0L538 0Q498 -19 473 -47Q447 -74 447 -99Q447 -131 490 -131Q519 -131 540 -127L549 -197Q521 -207 470 -207Q408 -207 371 -185Q334 -163 334 -126Q334 -53 413 0L67 0L67 684Z"  horiz-adv-x="613" vert-adv-y="1000"  />
      <glyph glyph-name="F" unicode="&#x46;" d="M248 0L67 0L67 684L554 684L554 550L248 550L248 409L525 409L525 275L248 275Z"  horiz-adv-x="578" vert-adv-y="1000"  />
      <glyph glyph-name="G" unicode="&#x47;" d="M390 230L390 364L623 364L623 12Q562 2 490 -5Q418 -11 356 -11Q247 -11 180 21Q112 52 82 122Q51 191 51 304L51 380Q51 496 81 565Q111 634 179 665Q247 695 360 695Q426 695 492 689Q557 683 609 672L593 536Q484 559 374 559Q317 559 287 545Q256 531 245 493Q234 454 234 380L234 304Q234 232 245 193Q255 153 283 138Q310 123 360 123Q378 123 402 125Q425 126 450 127L450 230Z"  horiz-adv-x="682" vert-adv-y="1000"  />
      <glyph glyph-name="Gbreve" unicode="&#x11e;" d="M366 718Q284 718 238 754Q192 789 192 852L289 863Q289 804 366 804Q443 804 443 863L539 852Q539 789 493 754Q447 718 366 718ZM390 230L390 364L623 364L623 12Q562 2 490 -5Q418 -11 356 -11Q247 -11 180 21Q112 52 82 122Q51 191 51 304L51 380Q51 496 81 565Q111 634 179 665Q247 695 360 695Q426 695 492 689Q557 683 609 672L593 536Q484 559 374 559Q317 559 287 545Q256 531 245 493Q234 454 234 380L234 304Q234 232 245 193Q255 153 283 138Q310 123 360 123Q378 123 402 125Q425 126 450 127L450 230Z"  horiz-adv-x="682" vert-adv-y="1000"  />
      <glyph glyph-name="Gcircumflex" unicode="&#x11c;" d="M518 722L362 796L206 721L180 802L362 912L552 801ZM390 230L390 364L623 364L623 12Q562 2 490 -5Q418 -11 356 -11Q247 -11 180 21Q112 52 82 122Q51 191 51 304L51 380Q51 496 81 565Q111 634 179 665Q247 695 360 695Q426 695 492 689Q557 683 609 672L593 536Q484 559 374 559Q317 559 287 545Q256 531 245 493Q234 454 234 380L234 304Q234 232 245 193Q255 153 283 138Q310 123 360 123Q378 123 402 125Q425 126 450 127L450 230Z"  horiz-adv-x="682" vert-adv-y="1000"  />
      <glyph glyph-name="uni0122" unicode="&#x122;" d="M390 230L390 364L623 364L623 12Q562 2 490 -5Q418 -11 356 -11Q247 -11 180 21Q112 52 82 122Q51 191 51 304L51 380Q51 496 81 565Q111 634 179 665Q247 695 360 695Q426 695 492 689Q557 683 609 672L593 536Q484 559 374 559Q317 559 287 545Q256 531 245 493Q234 454 234 380L234 304Q234 232 245 193Q255 153 283 138Q310 123 360 123Q378 123 402 125Q425 126 450 127L450 230ZM371 -50Q406 -50 421 -54Q436 -58 440 -68Q444 -77 444 -95L444 -117Q444 -128 442 -137Q440 -146 432 -156L394 -206Q390 -212 384 -212Q377 -211 357 -206Q338 -201 336 -198Q333 -194 337 -187L355 -155Q358 -149 358 -146Q358 -139 342 -138Q314 -136 306 -129Q297 -121 297 -95Q297 -77 301 -68Q305 -58 321 -54Q336 -50 371 -50Z"  horiz-adv-x="682" vert-adv-y="1000"  />
      <glyph glyph-name="Gdotaccent" unicode="&#x120;" d="M366 734Q328 734 311 741Q293 748 289 765Q284 781 284 809Q284 838 289 854Q293 870 311 877Q328 884 366 884Q405 884 422 877Q439 870 444 854Q448 838 448 809Q448 781 444 765Q439 748 422 741Q405 734 366 734ZM390 230L390 364L623 364L623 12Q562 2 490 -5Q418 -11 356 -11Q247 -11 180 21Q112 52 82 122Q51 191 51 304L51 380Q51 496 81 565Q111 634 179 665Q247 695 360 695Q426 695 492 689Q557 683 609 672L593 536Q484 559 374 559Q317 559 287 545Q256 531 245 493Q234 454 234 380L234 304Q234 232 245 193Q255 153 283 138Q310 123 360 123Q378 123 402 125Q425 126 450 127L450 230Z"  horiz-adv-x="682" vert-adv-y="1000"  />
      <glyph glyph-name="H" unicode="&#x48;" d="M248 0L67 0L67 684L248 684L248 414L490 414L490 684L671 684L671 0L490 0L490 280L248 280Z"  horiz-adv-x="738" vert-adv-y="1000"  />
      <glyph glyph-name="Hbar" unicode="&#x126;" d="M668 613L735 613L735 486L668 486L668 0L487 0L487 280L245 280L245 0L64 0L64 486L3 486L3 613L64 613L64 684L245 684L245 613L487 613L487 684L668 684ZM245 414L487 414L487 486L245 486Z"  horiz-adv-x="738" vert-adv-y="1000"  />
      <glyph glyph-name="Hcircumflex" unicode="&#x124;" d="M365 796L209 721L183 802L365 912L555 801L521 722ZM248 0L67 0L67 684L248 684L248 414L490 414L490 684L671 684L671 0L490 0L490 280L248 280Z"  horiz-adv-x="738" vert-adv-y="1000"  />
      <glyph glyph-name="I" unicode="&#x49;" d="M252 0L72 0L72 684L252 684Z"  horiz-adv-x="324" vert-adv-y="1000"  />
      <glyph glyph-name="IJ" unicode="&#x132;" d="M252 0L72 0L72 684L252 684ZM367 -14L316 114Q373 129 400 141Q427 153 435 174Q443 194 443 232L443 684L623 684L623 232Q623 173 614 135Q604 96 578 71Q551 45 501 26Q450 7 367 -14Z"  horiz-adv-x="686" vert-adv-y="1000"  />
      <glyph glyph-name="Iacute" unicode="&#xcd;" d="M305 808L82 722L54 811L297 920ZM252 0L72 0L72 684L252 684Z"  horiz-adv-x="324" vert-adv-y="1000"  />
      <glyph glyph-name="Icircumflex" unicode="&#xce;" d="M159 796L3 721L-23 802L159 912L349 801L315 722ZM252 0L72 0L72 684L252 684Z"  horiz-adv-x="324" vert-adv-y="1000"  />
      <glyph glyph-name="Idieresis" unicode="&#xcf;" d="M39 734Q1 734 -17 741Q-34 748 -39 765Q-43 781 -43 809Q-43 838 -39 854Q-34 870 -17 877Q1 884 39 884Q78 884 95 877Q112 870 117 854Q121 838 121 809Q121 781 117 765Q112 748 95 741Q78 734 39 734ZM286 734Q247 734 230 741Q213 748 209 765Q204 781 204 809Q204 838 209 854Q213 870 230 877Q247 884 286 884Q325 884 342 877Q359 870 364 854Q368 838 368 809Q368 781 364 765Q359 748 342 741Q325 734 286 734ZM252 0L72 0L72 684L252 684Z"  horiz-adv-x="324" vert-adv-y="1000"  />
      <glyph glyph-name="Idotaccent" unicode="&#x130;" d="M162 734Q124 734 107 741Q89 748 85 765Q80 781 80 809Q80 838 85 854Q89 870 107 877Q124 884 162 884Q201 884 218 877Q235 870 240 854Q244 838 244 809Q244 781 240 765Q235 748 218 741Q201 734 162 734ZM252 0L72 0L72 684L252 684Z"  horiz-adv-x="324" vert-adv-y="1000"  />
      <glyph glyph-name="Igrave" unicode="&#xcc;" d="M260 811L232 722L9 808L17 920ZM252 0L72 0L72 684L252 684Z"  horiz-adv-x="324" vert-adv-y="1000"  />
      <glyph glyph-name="Imacron" unicode="&#x12a;" d="M326 749L-1 749L-1 841L326 841ZM252 0L72 0L72 684L252 684Z"  horiz-adv-x="324" vert-adv-y="1000"  />
      <glyph glyph-name="Iogonek" unicode="&#x12e;" d="M252 0L225 0Q192 -19 172 -47Q151 -74 151 -99Q151 -131 191 -131Q218 -131 238 -127L248 -197Q218 -207 170 -207Q110 -207 74 -185Q38 -163 38 -126Q38 -52 107 0L72 0L72 684L252 684Z"  horiz-adv-x="324" vert-adv-y="1000"  />
      <glyph glyph-name="J" unicode="&#x4a;" d="M43 -14L-8 114Q49 129 76 141Q103 153 111 174Q119 194 119 232L119 684L299 684L299 232Q299 173 290 135Q280 96 254 71Q227 45 177 26Q126 7 43 -14Z"  horiz-adv-x="362" vert-adv-y="1000"  />
      <glyph glyph-name="Jcircumflex" unicode="&#x134;" d="M201 796L45 721L19 802L201 912L391 801L357 722ZM43 -14L-8 114Q49 129 76 141Q103 153 111 174Q119 194 119 232L119 684L299 684L299 232Q299 173 290 135Q280 96 254 71Q227 45 177 26Q126 7 43 -14Z"  horiz-adv-x="362" vert-adv-y="1000"  />
      <glyph glyph-name="K" unicode="&#x4b;" d="M775 0L566 0L355 266L248 266L248 0L67 0L67 684L248 684L248 422L345 422L542 684L749 684L488 350Z"  horiz-adv-x="785" vert-adv-y="1000"  />
      <glyph glyph-name="uni0136" unicode="&#x136;" d="M749 684L488 350L775 0L566 0L355 266L248 266L248 0L67 0L67 684L248 684L248 422L345 422L542 684ZM389 -50Q424 -50 439 -54Q454 -58 458 -68Q462 -77 462 -95L462 -117Q462 -128 460 -137Q458 -146 450 -156L412 -206Q408 -212 402 -212Q395 -211 375 -206Q356 -201 354 -198Q351 -194 355 -187L373 -155Q376 -149 376 -146Q376 -139 360 -138Q332 -136 324 -129Q315 -121 315 -95Q315 -77 319 -68Q323 -58 339 -54Q354 -50 389 -50Z"  horiz-adv-x="785" vert-adv-y="1000"  />
      <glyph glyph-name="L" unicode="&#x4c;" d="M539 0L67 0L67 684L248 684L248 136L539 136Z"  horiz-adv-x="559" vert-adv-y="1000"  />
      <glyph glyph-name="Lacute" unicode="&#x139;" d="M301 808L78 722L50 811L293 920ZM539 0L67 0L67 684L248 684L248 136L539 136Z"  horiz-adv-x="559" vert-adv-y="1000"  />
      <glyph glyph-name="Lcaron" unicode="&#x13d;" d="M559 675L484 460L366 483L412 697ZM539 0L67 0L67 684L248 684L248 136L539 136Z"  horiz-adv-x="559" vert-adv-y="1000"  />
      <glyph glyph-name="uni013B" unicode="&#x13b;" d="M539 0L67 0L67 684L248 684L248 136L539 136ZM290 -206Q271 -201 269 -198Q266 -194 270 -187L288 -155Q291 -149 291 -146Q291 -139 275 -138Q247 -136 239 -129Q230 -121 230 -95Q230 -77 234 -68Q238 -58 254 -54Q269 -50 304 -50Q339 -50 354 -54Q369 -58 373 -68Q377 -77 377 -95L377 -117Q377 -128 375 -137Q373 -146 365 -156L327 -206Q323 -212 317 -212Q310 -211 290 -206Z"  horiz-adv-x="559" vert-adv-y="1000"  />
      <glyph glyph-name="Ldot" unicode="&#x13f;" d="M539 0L67 0L67 684L248 684L248 136L539 136ZM429 282Q385 282 366 290Q346 298 342 317Q337 336 337 369Q337 402 342 421Q346 440 366 448Q385 456 429 456Q473 456 492 448Q511 440 516 421Q521 402 521 369Q521 336 516 317Q511 298 492 290Q473 282 429 282Z"  horiz-adv-x="559" vert-adv-y="1000"  />
      <glyph glyph-name="Lslash" unicode="&#x141;" d="M245 334L245 136L536 136L536 0L64 0L64 252L-3 222L-3 347L64 378L64 684L245 684L245 461L399 531L399 404Z"  horiz-adv-x="559" vert-adv-y="1000"  />
      <glyph glyph-name="M" unicode="&#x4d;" d="M453 364L660 684L839 684L839 0L667 0L667 430L521 200L385 200L239 427L239 0L67 0L67 684L245 684Z"  horiz-adv-x="906" vert-adv-y="1000"  />
      <glyph glyph-name="N" unicode="&#x4e;" d="M525 426L525 684L702 684L702 0L506 0L238 422Q240 382 242 342Q243 302 243 262L243 0L67 0L67 684L262 684L530 246Q528 292 527 337Q525 381 525 426Z"  horiz-adv-x="769" vert-adv-y="1000"  />
      <glyph glyph-name="Nacute" unicode="&#x143;" d="M502 920L510 808L287 722L259 811ZM525 426L525 684L702 684L702 0L506 0L238 422Q240 382 242 342Q243 302 243 262L243 0L67 0L67 684L262 684L530 246Q528 292 527 337Q525 381 525 426Z"  horiz-adv-x="769" vert-adv-y="1000"  />
      <glyph glyph-name="Ncaron" unicode="&#x147;" d="M545 909L571 828L388 718L199 829L233 908L388 834ZM525 426L525 684L702 684L702 0L506 0L238 422Q240 382 242 342Q243 302 243 262L243 0L67 0L67 684L262 684L530 246Q528 292 527 337Q525 381 525 426Z"  horiz-adv-x="769" vert-adv-y="1000"  />
      <glyph glyph-name="uni0145" unicode="&#x145;" d="M525 426L525 684L702 684L702 0L506 0L238 422Q240 382 242 342Q243 302 243 262L243 0L67 0L67 684L262 684L530 246Q528 292 527 337Q525 381 525 426ZM386 -50Q421 -50 436 -54Q451 -58 455 -68Q459 -77 459 -95L459 -117Q459 -128 457 -137Q455 -146 447 -156L409 -206Q405 -212 399 -212Q392 -211 372 -206Q353 -201 351 -198Q348 -194 352 -187L370 -155Q373 -149 373 -146Q373 -139 357 -138Q329 -136 321 -129Q312 -121 312 -95Q312 -77 316 -68Q320 -58 336 -54Q351 -50 386 -50Z"  horiz-adv-x="769" vert-adv-y="1000"  />
      <glyph glyph-name="Ntilde" unicode="&#xd1;" d="M316 776Q291 776 269 764Q246 752 230 739L196 818Q217 840 249 857Q281 874 314 874Q347 874 373 865Q399 856 420 847Q441 838 460 838Q510 838 538 874L573 799Q557 771 526 756Q494 741 456 741Q424 741 402 750Q379 759 360 768Q340 776 316 776ZM525 426L525 684L702 684L702 0L506 0L238 422Q240 382 242 342Q243 302 243 262L243 0L67 0L67 684L262 684L530 246Q528 292 527 337Q525 381 525 426Z"  horiz-adv-x="769" vert-adv-y="1000"  />
      <glyph glyph-name="O" unicode="&#x4f;" d="M367 -11Q260 -11 197 15Q133 41 102 85Q71 129 61 186Q51 243 51 304L51 380Q51 442 61 499Q71 555 102 599Q133 643 197 669Q260 695 367 695Q474 695 538 669Q601 643 633 599Q664 555 674 499Q684 442 684 380L684 304Q684 243 674 186Q664 129 633 85Q601 41 538 15Q474 -11 367 -11ZM367 123Q430 123 459 143Q487 162 494 202Q501 242 501 304L501 380Q501 442 494 482Q487 522 459 542Q430 561 367 561Q305 561 277 542Q248 522 241 482Q234 442 234 380L234 304Q234 242 241 202Q248 162 277 143Q305 123 367 123Z"  horiz-adv-x="735" vert-adv-y="1000"  />
      <glyph glyph-name="Oacute" unicode="&#xd3;" d="M494 808L271 722L243 811L486 920ZM367 -11Q260 -11 197 15Q133 41 102 85Q71 129 61 186Q51 243 51 304L51 380Q51 442 61 499Q71 555 102 599Q133 643 197 669Q260 695 367 695Q474 695 538 669Q601 643 633 599Q664 555 674 499Q684 442 684 380L684 304Q684 243 674 186Q664 129 633 85Q601 41 538 15Q474 -11 367 -11ZM367 123Q430 123 459 143Q487 162 494 202Q501 242 501 304L501 380Q501 442 494 482Q487 522 459 542Q430 561 367 561Q305 561 277 542Q248 522 241 482Q234 442 234 380L234 304Q234 242 241 202Q248 162 277 143Q305 123 367 123Z"  horiz-adv-x="735" vert-adv-y="1000"  />
      <glyph glyph-name="uni019F" unicode="&#x19f;" d="M367 695Q474 695 538 669Q601 643 633 599Q664 555 674 499Q684 442 684 380L684 304Q684 243 674 186Q664 129 633 85Q601 41 538 15Q474 -11 367 -11Q260 -11 197 15Q133 41 102 85Q71 129 61 186Q51 243 51 304L51 380Q51 442 61 499Q71 555 102 599Q133 643 197 669Q260 695 367 695ZM367 561Q310 561 282 545Q254 529 245 496Q235 463 234 412L501 412Q500 463 491 496Q481 529 453 545Q425 561 367 561ZM367 123Q427 123 455 141Q483 158 492 194Q501 229 501 284L234 284Q235 229 244 194Q252 158 280 141Q308 123 367 123Z"  horiz-adv-x="735" vert-adv-y="1000"  />
      <glyph glyph-name="Ocircumflex" unicode="&#xd4;" d="M363 796L207 721L181 802L363 912L553 801L519 722ZM367 -11Q260 -11 197 15Q133 41 102 85Q71 129 61 186Q51 243 51 304L51 380Q51 442 61 499Q71 555 102 599Q133 643 197 669Q260 695 367 695Q474 695 538 669Q601 643 633 599Q664 555 674 499Q684 442 684 380L684 304Q684 243 674 186Q664 129 633 85Q601 41 538 15Q474 -11 367 -11ZM367 123Q430 123 459 143Q487 162 494 202Q501 242 501 304L501 380Q501 442 494 482Q487 522 459 542Q430 561 367 561Q305 561 277 542Q248 522 241 482Q234 442 234 380L234 304Q234 242 241 202Q248 162 277 143Q305 123 367 123Z"  horiz-adv-x="735" vert-adv-y="1000"  />
      <glyph glyph-name="Odieresis" unicode="&#xd6;" d="M244 734Q206 734 189 741Q171 748 167 765Q162 781 162 809Q162 838 167 854Q171 870 189 877Q206 884 244 884Q283 884 300 877Q317 870 322 854Q326 838 326 809Q326 781 322 765Q317 748 300 741Q283 734 244 734ZM491 734Q453 734 436 741Q418 748 414 765Q409 781 409 809Q409 838 414 854Q418 870 436 877Q453 884 491 884Q530 884 547 877Q564 870 569 854Q573 838 573 809Q573 781 569 765Q564 748 547 741Q530 734 491 734ZM367 -11Q260 -11 197 15Q133 41 102 85Q71 129 61 186Q51 243 51 304L51 380Q51 442 61 499Q71 555 102 599Q133 643 197 669Q260 695 367 695Q474 695 538 669Q601 643 633 599Q664 555 674 499Q684 442 684 380L684 304Q684 243 674 186Q664 129 633 85Q601 41 538 15Q474 -11 367 -11ZM367 123Q430 123 459 143Q487 162 494 202Q501 242 501 304L501 380Q501 442 494 482Q487 522 459 542Q430 561 367 561Q305 561 277 542Q248 522 241 482Q234 442 234 380L234 304Q234 242 241 202Q248 162 277 143Q305 123 367 123Z"  horiz-adv-x="735" vert-adv-y="1000"  />
      <glyph glyph-name="Ograve" unicode="&#xd2;" d="M493 811L465 722L242 808L250 920ZM367 -11Q260 -11 197 15Q133 41 102 85Q71 129 61 186Q51 243 51 304L51 380Q51 442 61 499Q71 555 102 599Q133 643 197 669Q260 695 367 695Q474 695 538 669Q601 643 633 599Q664 555 674 499Q684 442 684 380L684 304Q684 243 674 186Q664 129 633 85Q601 41 538 15Q474 -11 367 -11ZM367 123Q430 123 459 143Q487 162 494 202Q501 242 501 304L501 380Q501 442 494 482Q487 522 459 542Q430 561 367 561Q305 561 277 542Q248 522 241 482Q234 442 234 380L234 304Q234 242 241 202Q248 162 277 143Q305 123 367 123Z"  horiz-adv-x="735" vert-adv-y="1000"  />
      <glyph glyph-name="Ohungarumlaut" unicode="&#x150;" d="M415 870L254 713L165 752L301 906ZM641 870L480 713L392 752L527 906ZM367 -11Q260 -11 197 15Q133 41 102 85Q71 129 61 186Q51 243 51 304L51 380Q51 442 61 499Q71 555 102 599Q133 643 197 669Q260 695 367 695Q474 695 538 669Q601 643 633 599Q664 555 674 499Q684 442 684 380L684 304Q684 243 674 186Q664 129 633 85Q601 41 538 15Q474 -11 367 -11ZM367 123Q430 123 459 143Q487 162 494 202Q501 242 501 304L501 380Q501 442 494 482Q487 522 459 542Q430 561 367 561Q305 561 277 542Q248 522 241 482Q234 442 234 380L234 304Q234 242 241 202Q248 162 277 143Q305 123 367 123Z"  horiz-adv-x="735" vert-adv-y="1000"  />
      <glyph glyph-name="Omacron" unicode="&#x14c;" d="M531 749L204 749L204 841L531 841ZM367 -11Q260 -11 197 15Q133 41 102 85Q71 129 61 186Q51 243 51 304L51 380Q51 442 61 499Q71 555 102 599Q133 643 197 669Q260 695 367 695Q474 695 538 669Q601 643 633 599Q664 555 674 499Q684 442 684 380L684 304Q684 243 674 186Q664 129 633 85Q601 41 538 15Q474 -11 367 -11ZM367 123Q430 123 459 143Q487 162 494 202Q501 242 501 304L501 380Q501 442 494 482Q487 522 459 542Q430 561 367 561Q305 561 277 542Q248 522 241 482Q234 442 234 380L234 304Q234 242 241 202Q248 162 277 143Q305 123 367 123Z"  horiz-adv-x="735" vert-adv-y="1000"  />
      <glyph glyph-name="Oslash" unicode="&#xd8;" d="M656 707L606 628Q656 583 670 518Q684 452 684 380L684 304Q684 243 674 186Q664 129 633 85Q601 41 538 15Q474 -11 367 -11Q322 -11 285 -6Q248 -1 218 8L174 -63L85 -21L132 54Q97 84 80 124Q62 163 57 209Q51 255 51 304L51 380Q51 442 61 499Q71 555 102 599Q133 643 197 669Q260 695 367 695Q414 695 452 690Q490 685 521 675L567 749ZM234 380L234 304Q234 257 237 222L442 550Q414 561 367 561Q305 561 277 542Q248 522 241 482Q234 442 234 380ZM501 304L501 380Q501 402 501 421Q500 439 498 455L297 133Q321 123 367 123Q430 123 459 143Q487 162 494 202Q501 242 501 304Z"  horiz-adv-x="735" vert-adv-y="1000"  />
      <glyph glyph-name="Otilde" unicode="&#xd5;" d="M438 741Q406 741 384 750Q361 759 342 768Q322 776 298 776Q273 776 251 764Q228 752 212 739L178 818Q199 840 231 857Q263 874 296 874Q329 874 355 865Q381 856 402 847Q423 838 442 838Q492 838 520 874L555 799Q539 771 508 756Q476 741 438 741ZM367 -11Q260 -11 197 15Q133 41 102 85Q71 129 61 186Q51 243 51 304L51 380Q51 442 61 499Q71 555 102 599Q133 643 197 669Q260 695 367 695Q474 695 538 669Q601 643 633 599Q664 555 674 499Q684 442 684 380L684 304Q684 243 674 186Q664 129 633 85Q601 41 538 15Q474 -11 367 -11ZM367 123Q430 123 459 143Q487 162 494 202Q501 242 501 304L501 380Q501 442 494 482Q487 522 459 542Q430 561 367 561Q305 561 277 542Q248 522 241 482Q234 442 234 380L234 304Q234 242 241 202Q248 162 277 143Q305 123 367 123Z"  horiz-adv-x="735" vert-adv-y="1000"  />
      <glyph glyph-name="OE" unicode="&#x152;" d="M368 -6Q201 -6 127 67Q52 140 52 304L52 379Q52 541 128 616Q204 690 368 690Q412 690 457 689Q501 687 538 684L1002 684L1002 550L685 550L685 419L966 419L966 285L685 285L685 134L1002 134L1002 0L540 0Q486 -3 444 -5Q402 -6 368 -6ZM368 127Q400 127 433 129Q465 130 504 134L504 550Q473 553 438 555Q403 556 368 556Q316 556 287 541Q258 525 246 487Q234 448 234 379L234 304Q234 234 246 196Q257 157 286 142Q315 127 368 127Z"  horiz-adv-x="1050" vert-adv-y="1000"  />
      <glyph glyph-name="P" unicode="&#x50;" d="M248 0L67 0L67 684L398 684Q488 684 540 662Q592 640 614 590Q636 539 636 452Q636 328 581 273Q525 218 397 218L248 218ZM248 550L248 351L368 351Q404 351 423 359Q442 367 449 389Q456 411 456 452Q456 494 449 515Q442 536 421 543Q399 550 357 550Z"  horiz-adv-x="664" vert-adv-y="1000"  />
      <glyph glyph-name="Thorn" unicode="&#xde;" d="M248 574L398 574Q488 574 540 552Q592 530 614 480Q636 429 636 342Q636 218 581 163Q525 108 397 108L248 108L248 0L67 0L67 684L248 684ZM248 241L368 241Q404 241 423 249Q442 257 449 279Q456 301 456 342Q456 384 449 405Q442 426 421 433Q399 440 357 440L248 440Z"  horiz-adv-x="664" vert-adv-y="1000"  />
      <glyph glyph-name="Q" unicode="&#x51;" d="M684 380L684 304Q684 250 677 200Q670 150 648 109Q626 67 582 38Q538 8 465 -4Q469 -27 479 -36Q488 -44 509 -44Q526 -44 546 -42Q566 -39 593 -33L619 -148Q575 -156 543 -160Q511 -164 480 -164Q425 -164 393 -151Q360 -137 345 -104Q330 -70 325 -10Q233 -5 178 23Q123 50 96 94Q68 137 60 192Q51 246 51 304L51 380Q51 442 61 499Q71 555 102 599Q133 643 197 669Q260 695 367 695Q474 695 538 669Q601 643 633 599Q664 555 674 499Q684 442 684 380ZM501 304L501 380Q501 442 494 482Q487 522 459 542Q430 561 367 561Q305 561 277 542Q248 522 241 482Q234 442 234 380L234 304Q234 242 241 202Q248 162 277 143Q305 123 367 123Q430 123 459 143Q487 162 494 202Q501 242 501 304Z"  horiz-adv-x="735" vert-adv-y="1000"  />
      <glyph glyph-name="R" unicode="&#x52;" d="M690 0L483 0L316 233L248 233L248 0L67 0L67 684L360 684Q465 684 525 664Q584 643 609 594Q633 545 633 458Q633 368 605 318Q576 267 514 247ZM368 550L248 550L248 366L366 366Q401 366 420 374Q438 381 445 401Q452 421 452 458Q452 513 435 532Q418 550 368 550Z"  horiz-adv-x="702" vert-adv-y="1000"  />
      <glyph glyph-name="Racute" unicode="&#x154;" d="M467 920L475 808L252 722L224 811ZM690 0L483 0L316 233L248 233L248 0L67 0L67 684L360 684Q465 684 525 664Q584 643 609 594Q633 545 633 458Q633 368 605 318Q576 267 514 247ZM368 550L248 550L248 366L366 366Q401 366 420 374Q438 381 445 401Q452 421 452 458Q452 513 435 532Q418 550 368 550Z"  horiz-adv-x="702" vert-adv-y="1000"  />
      <glyph glyph-name="Rcaron" unicode="&#x158;" d="M492 909L518 828L335 718L146 829L180 908L335 834ZM690 0L483 0L316 233L248 233L248 0L67 0L67 684L360 684Q465 684 525 664Q584 643 609 594Q633 545 633 458Q633 368 605 318Q576 267 514 247ZM368 550L248 550L248 366L366 366Q401 366 420 374Q438 381 445 401Q452 421 452 458Q452 513 435 532Q418 550 368 550Z"  horiz-adv-x="702" vert-adv-y="1000"  />
      <glyph glyph-name="uni0156" unicode="&#x156;" d="M514 247L690 0L483 0L316 233L248 233L248 0L67 0L67 684L360 684Q465 684 525 664Q584 643 609 594Q633 545 633 458Q633 368 605 318Q576 267 514 247ZM248 366L366 366Q401 366 420 374Q438 381 445 401Q452 421 452 458Q452 513 435 532Q418 550 368 550L248 550ZM363 -50Q398 -50 413 -54Q428 -58 432 -68Q436 -77 436 -95L436 -117Q436 -128 434 -137Q432 -146 424 -156L386 -206Q382 -212 376 -212Q369 -211 349 -206Q330 -201 328 -198Q325 -194 329 -187L347 -155Q350 -149 350 -146Q350 -139 334 -138Q306 -136 298 -129Q289 -121 289 -95Q289 -77 293 -68Q297 -58 313 -54Q328 -50 363 -50Z"  horiz-adv-x="702" vert-adv-y="1000"  />
      <glyph glyph-name="S" unicode="&#x53;" d="M282 -11Q219 -11 157 -3Q95 5 42 20L61 154Q115 138 173 130Q230 122 285 122Q352 122 376 137Q399 152 399 195Q399 220 389 235Q379 250 349 261Q319 271 259 283Q174 301 127 326Q79 351 60 393Q41 434 41 499Q41 602 108 649Q174 695 319 695Q371 695 434 690Q497 684 554 675L539 533Q471 548 419 555Q366 561 319 561Q265 561 245 549Q224 536 224 503Q224 479 234 465Q243 450 273 440Q302 430 362 417Q448 398 496 373Q543 347 562 307Q581 266 581 200Q581 124 552 78Q522 31 456 10Q390 -11 282 -11Z"  horiz-adv-x="610" vert-adv-y="1000"  />
      <glyph glyph-name="Sacute" unicode="&#x15a;" d="M452 808L229 722L201 811L444 920ZM282 -11Q219 -11 157 -3Q95 5 42 20L61 154Q115 138 173 130Q230 122 285 122Q352 122 376 137Q399 152 399 195Q399 220 389 235Q379 250 349 261Q319 271 259 283Q174 301 127 326Q79 351 60 393Q41 434 41 499Q41 602 108 649Q174 695 319 695Q371 695 434 690Q497 684 554 675L539 533Q471 548 419 555Q366 561 319 561Q265 561 245 549Q224 536 224 503Q224 479 234 465Q243 450 273 440Q302 430 362 417Q448 398 496 373Q543 347 562 307Q581 266 581 200Q581 124 552 78Q522 31 456 10Q390 -11 282 -11Z"  horiz-adv-x="610" vert-adv-y="1000"  />
      <glyph glyph-name="Scaron" unicode="&#x160;" d="M506 828L323 718L134 829L168 908L323 834L480 909ZM282 -11Q219 -11 157 -3Q95 5 42 20L61 154Q115 138 173 130Q230 122 285 122Q352 122 376 137Q399 152 399 195Q399 220 389 235Q379 250 349 261Q319 271 259 283Q174 301 127 326Q79 351 60 393Q41 434 41 499Q41 602 108 649Q174 695 319 695Q371 695 434 690Q497 684 554 675L539 533Q471 548 419 555Q366 561 319 561Q265 561 245 549Q224 536 224 503Q224 479 234 465Q243 450 273 440Q302 430 362 417Q448 398 496 373Q543 347 562 307Q581 266 581 200Q581 124 552 78Q522 31 456 10Q390 -11 282 -11Z"  horiz-adv-x="610" vert-adv-y="1000"  />
      <glyph glyph-name="Scedilla" unicode="&#x15e;" d="M581 200Q581 94 524 46Q466 -3 331 -10L325 -32Q392 -34 417 -50Q442 -65 442 -98L442 -137Q442 -177 413 -192Q384 -207 304 -207Q275 -207 248 -205Q221 -202 182 -196L200 -124Q253 -136 305 -136Q318 -136 322 -134Q325 -131 325 -124L325 -106Q325 -97 321 -95Q317 -93 303 -93Q296 -93 276 -96L217 -82L241 -10Q188 -8 137 -1Q86 7 42 20L61 154Q115 138 173 130Q230 122 285 122Q352 122 376 137Q399 152 399 195Q399 220 389 235Q379 250 349 261Q319 271 259 283Q174 301 127 326Q79 351 60 393Q41 434 41 499Q41 602 108 649Q174 695 319 695Q371 695 434 690Q497 684 554 675L539 533Q471 548 419 555Q366 561 319 561Q265 561 245 549Q224 536 224 503Q224 479 234 465Q243 450 273 440Q302 430 362 417Q448 398 496 373Q543 347 562 307Q581 266 581 200Z"  horiz-adv-x="610" vert-adv-y="1000"  />
      <glyph glyph-name="Scircumflex" unicode="&#x15c;" d="M313 796L157 721L131 802L313 912L503 801L469 722ZM282 -11Q219 -11 157 -3Q95 5 42 20L61 154Q115 138 173 130Q230 122 285 122Q352 122 376 137Q399 152 399 195Q399 220 389 235Q379 250 349 261Q319 271 259 283Q174 301 127 326Q79 351 60 393Q41 434 41 499Q41 602 108 649Q174 695 319 695Q371 695 434 690Q497 684 554 675L539 533Q471 548 419 555Q366 561 319 561Q265 561 245 549Q224 536 224 503Q224 479 234 465Q243 450 273 440Q302 430 362 417Q448 398 496 373Q543 347 562 307Q581 266 581 200Q581 124 552 78Q522 31 456 10Q390 -11 282 -11Z"  horiz-adv-x="610" vert-adv-y="1000"  />
      <glyph glyph-name="uni0218" unicode="&#x218;" d="M282 -11Q219 -11 157 -3Q95 5 42 20L61 154Q115 138 173 130Q230 122 285 122Q352 122 376 137Q399 152 399 195Q399 220 389 235Q379 250 349 261Q319 271 259 283Q174 301 127 326Q79 351 60 393Q41 434 41 499Q41 602 108 649Q174 695 319 695Q371 695 434 690Q497 684 554 675L539 533Q471 548 419 555Q366 561 319 561Q265 561 245 549Q224 536 224 503Q224 479 234 465Q243 450 273 440Q302 430 362 417Q448 398 496 373Q543 347 562 307Q581 266 581 200Q581 124 552 78Q522 31 456 10Q390 -11 282 -11ZM293 -206Q274 -201 272 -198Q269 -194 273 -187L291 -155Q294 -149 294 -146Q294 -139 278 -138Q250 -136 242 -129Q233 -121 233 -95Q233 -77 237 -68Q241 -58 257 -54Q272 -50 307 -50Q342 -50 357 -54Q372 -58 376 -68Q380 -77 380 -95L380 -117Q380 -128 378 -137Q376 -146 368 -156L330 -206Q326 -212 320 -212Q313 -211 293 -206Z"  horiz-adv-x="610" vert-adv-y="1000"  />
      <glyph glyph-name="uni018F" unicode="&#x18f;" d="M358 695Q529 695 607 620Q684 545 684 380L684 304Q684 192 652 123Q620 53 550 21Q480 -11 367 -11Q255 -11 185 21Q115 53 83 123Q51 192 51 304L51 412L500 412Q496 470 480 502Q464 534 432 548Q399 561 345 561Q283 561 220 552Q156 543 73 522L58 658Q129 676 208 686Q286 695 358 695ZM367 123Q420 123 449 135Q477 146 489 181Q500 216 502 284L234 284Q235 220 247 185Q258 150 287 137Q315 123 367 123Z"  horiz-adv-x="735" vert-adv-y="1000"  />
      <glyph glyph-name="T" unicode="&#x54;" d="M390 0L210 0L210 550L14 550L14 684L587 684L587 550L390 550Z"  horiz-adv-x="601" vert-adv-y="1000"  />
      <glyph glyph-name="Tcaron" unicode="&#x164;" d="M487 828L304 718L115 829L149 908L304 834L461 909ZM390 0L210 0L210 550L14 550L14 684L587 684L587 550L390 550Z"  horiz-adv-x="601" vert-adv-y="1000"  />
      <glyph glyph-name="uni021A" unicode="&#x21a;" d="M390 0L210 0L210 550L14 550L14 684L587 684L587 550L390 550ZM288 -206Q269 -201 267 -198Q264 -194 268 -187L286 -155Q289 -149 289 -146Q289 -139 273 -138Q245 -136 237 -129Q228 -121 228 -95Q228 -77 232 -68Q236 -58 252 -54Q267 -50 302 -50Q337 -50 352 -54Q367 -58 371 -68Q375 -77 375 -95L375 -117Q375 -128 373 -137Q371 -146 363 -156L325 -206Q321 -212 315 -212Q308 -211 288 -206Z"  horiz-adv-x="601" vert-adv-y="1000"  />
      <glyph glyph-name="U" unicode="&#x55;" d="M364 -11Q216 -11 139 53Q61 116 61 237L61 684L242 684L242 244Q242 180 270 154Q297 127 364 127Q430 127 458 154Q485 180 485 244L485 684L665 684L665 237Q665 115 589 52Q513 -11 364 -11Z"  horiz-adv-x="728" vert-adv-y="1000"  />
      <glyph glyph-name="Uacute" unicode="&#xda;" d="M513 808L290 722L262 811L505 920ZM364 -11Q216 -11 139 53Q61 116 61 237L61 684L242 684L242 244Q242 180 270 154Q297 127 364 127Q430 127 458 154Q485 180 485 244L485 684L665 684L665 237Q665 115 589 52Q513 -11 364 -11Z"  horiz-adv-x="728" vert-adv-y="1000"  />
      <glyph glyph-name="Ubreve" unicode="&#x16c;" d="M364 718Q282 718 236 754Q190 789 190 852L287 863Q287 804 364 804Q441 804 441 863L537 852Q537 789 491 754Q445 718 364 718ZM364 -11Q216 -11 139 53Q61 116 61 237L61 684L242 684L242 244Q242 180 270 154Q297 127 364 127Q430 127 458 154Q485 180 485 244L485 684L665 684L665 237Q665 115 589 52Q513 -11 364 -11Z"  horiz-adv-x="728" vert-adv-y="1000"  />
      <glyph glyph-name="Ucircumflex" unicode="&#xdb;" d="M361 796L205 721L179 802L361 912L551 801L517 722ZM364 -11Q216 -11 139 53Q61 116 61 237L61 684L242 684L242 244Q242 180 270 154Q297 127 364 127Q430 127 458 154Q485 180 485 244L485 684L665 684L665 237Q665 115 589 52Q513 -11 364 -11Z"  horiz-adv-x="728" vert-adv-y="1000"  />
      <glyph glyph-name="Udieresis" unicode="&#xdc;" d="M241 734Q203 734 186 741Q168 748 164 765Q159 781 159 809Q159 838 164 854Q168 870 186 877Q203 884 241 884Q280 884 297 877Q314 870 319 854Q323 838 323 809Q323 781 319 765Q314 748 297 741Q280 734 241 734ZM488 734Q450 734 433 741Q415 748 411 765Q406 781 406 809Q406 838 411 854Q415 870 433 877Q450 884 488 884Q527 884 544 877Q561 870 566 854Q570 838 570 809Q570 781 566 765Q561 748 544 741Q527 734 488 734ZM364 -11Q216 -11 139 53Q61 116 61 237L61 684L242 684L242 244Q242 180 270 154Q297 127 364 127Q430 127 458 154Q485 180 485 244L485 684L665 684L665 237Q665 115 589 52Q513 -11 364 -11Z"  horiz-adv-x="728" vert-adv-y="1000"  />
      <glyph glyph-name="Ugrave" unicode="&#xd9;" d="M467 811L439 722L216 808L224 920ZM364 -11Q216 -11 139 53Q61 116 61 237L61 684L242 684L242 244Q242 180 270 154Q297 127 364 127Q430 127 458 154Q485 180 485 244L485 684L665 684L665 237Q665 115 589 52Q513 -11 364 -11Z"  horiz-adv-x="728" vert-adv-y="1000"  />
      <glyph glyph-name="Uhungarumlaut" unicode="&#x170;" d="M415 870L254 713L165 752L301 906ZM641 870L480 713L392 752L527 906ZM364 -11Q216 -11 139 53Q61 116 61 237L61 684L242 684L242 244Q242 180 270 154Q297 127 364 127Q430 127 458 154Q485 180 485 244L485 684L665 684L665 237Q665 115 589 52Q513 -11 364 -11Z"  horiz-adv-x="728" vert-adv-y="1000"  />
      <glyph glyph-name="Umacron" unicode="&#x16a;" d="M529 749L202 749L202 841L529 841ZM364 -11Q216 -11 139 53Q61 116 61 237L61 684L242 684L242 244Q242 180 270 154Q297 127 364 127Q430 127 458 154Q485 180 485 244L485 684L665 684L665 237Q665 115 589 52Q513 -11 364 -11Z"  horiz-adv-x="728" vert-adv-y="1000"  />
      <glyph glyph-name="Uogonek" unicode="&#x172;" d="M485 244L485 684L665 684L665 237Q665 30 450 -5Q414 -24 392 -50Q369 -76 369 -99Q369 -131 412 -131Q441 -131 462 -127L471 -197Q443 -207 392 -207Q330 -207 293 -185Q256 -163 256 -126Q256 -59 322 -10Q194 -1 128 62Q61 125 61 237L61 684L242 684L242 244Q242 180 270 154Q297 127 364 127Q430 127 458 154Q485 180 485 244Z"  horiz-adv-x="728" vert-adv-y="1000"  />
      <glyph glyph-name="Uring" unicode="&#x16e;" d="M364 712Q311 712 278 739Q245 765 245 811Q245 855 278 883Q311 910 364 910Q420 910 452 883Q484 855 484 811Q484 767 452 740Q420 712 364 712ZM364 771Q410 771 410 811Q410 852 364 852Q320 852 320 811Q320 771 364 771ZM364 -11Q216 -11 139 53Q61 116 61 237L61 684L242 684L242 244Q242 180 270 154Q297 127 364 127Q430 127 458 154Q485 180 485 244L485 684L665 684L665 237Q665 115 589 52Q513 -11 364 -11Z"  horiz-adv-x="728" vert-adv-y="1000"  />
      <glyph glyph-name="V" unicode="&#x56;" d="M357 158L532 684L720 684L466 0L235 0L-8 684L187 684Z"  horiz-adv-x="713" vert-adv-y="1000"  />
      <glyph glyph-name="W" unicode="&#x57;" d="M734 203L843 684L1026 684L847 0L644 0L514 346L387 0L184 0L3 684L186 684L296 202L414 496L616 496Z"  horiz-adv-x="1029" vert-adv-y="1000"  />
      <glyph glyph-name="Wcircumflex" unicode="&#x174;" d="M667 722L511 796L355 721L329 802L511 912L701 801ZM734 203L843 684L1026 684L847 0L644 0L514 346L387 0L184 0L3 684L186 684L296 202L414 496L616 496Z"  horiz-adv-x="1029" vert-adv-y="1000"  />
      <glyph glyph-name="X" unicode="&#x58;" d="M450 356L687 0L488 0L344 217L201 0L4 0L240 355L19 684L218 684L347 491L471 684L666 684Z"  horiz-adv-x="692" vert-adv-y="1000"  />
      <glyph glyph-name="Y" unicode="&#x59;" d="M327 406L471 684L659 684L416 237L416 0L235 0L235 237L-10 684L186 684Z"  horiz-adv-x="651" vert-adv-y="1000"  />
      <glyph glyph-name="Yacute" unicode="&#xdd;" d="M466 920L474 808L251 722L223 811ZM327 406L471 684L659 684L416 237L416 0L235 0L235 237L-10 684L186 684Z"  horiz-adv-x="651" vert-adv-y="1000"  />
      <glyph glyph-name="Ycircumflex" unicode="&#x176;" d="M478 722L322 796L166 721L140 802L322 912L512 801ZM327 406L471 684L659 684L416 237L416 0L235 0L235 237L-10 684L186 684Z"  horiz-adv-x="651" vert-adv-y="1000"  />
      <glyph glyph-name="Ydieresis" unicode="&#x178;" d="M203 734Q165 734 148 741Q130 748 126 765Q121 781 121 809Q121 838 126 854Q130 870 148 877Q165 884 203 884Q242 884 259 877Q276 870 281 854Q285 838 285 809Q285 781 281 765Q276 748 259 741Q242 734 203 734ZM450 734Q412 734 395 741Q377 748 373 765Q368 781 368 809Q368 838 373 854Q377 870 395 877Q412 884 450 884Q489 884 506 877Q523 870 528 854Q532 838 532 809Q532 781 528 765Q523 748 506 741Q489 734 450 734ZM327 406L471 684L659 684L416 237L416 0L235 0L235 237L-10 684L186 684Z"  horiz-adv-x="651" vert-adv-y="1000"  />
      <glyph glyph-name="Z" unicode="&#x5a;" d="M57 684L598 684L598 563L259 129L598 129L598 0L45 0L45 121L382 555L57 555Z"  horiz-adv-x="650" vert-adv-y="1000"  />
      <glyph glyph-name="Zacute" unicode="&#x179;" d="M459 920L467 808L244 722L216 811ZM57 684L598 684L598 563L259 129L598 129L598 0L45 0L45 121L382 555L57 555Z"  horiz-adv-x="650" vert-adv-y="1000"  />
      <glyph glyph-name="Zcaron" unicode="&#x17d;" d="M486 909L512 828L329 718L140 829L174 908L329 834ZM57 684L598 684L598 563L259 129L598 129L598 0L45 0L45 121L382 555L57 555Z"  horiz-adv-x="650" vert-adv-y="1000"  />
      <glyph glyph-name="Zdotaccent" unicode="&#x17b;" d="M325 734Q287 734 270 741Q252 748 248 765Q243 781 243 809Q243 838 248 854Q252 870 270 877Q287 884 325 884Q364 884 381 877Q398 870 403 854Q407 838 407 809Q407 781 403 765Q398 748 381 741Q364 734 325 734ZM57 684L598 684L598 563L259 129L598 129L598 0L45 0L45 121L382 555L57 555Z"  horiz-adv-x="650" vert-adv-y="1000"  />
      <glyph glyph-name="Iacute_J.loclNLD" unicode="Iacute_J.loclNLD" d="M305 817L82 731L54 820L297 929ZM681 817L458 731L430 820L673 929ZM252 0L72 0L72 684L252 684ZM367 -14L316 114Q373 129 400 141Q427 153 435 174Q443 194 443 232L443 684L623 684L623 232Q623 173 614 135Q604 96 578 71Q551 45 501 26Q450 7 367 -14Z"  horiz-adv-x="692" vert-adv-y="1000"  />
      <glyph glyph-name="a" unicode="&#x61;" d="M296 505Q384 505 434 488Q484 470 505 428Q526 385 526 310L526 0L375 0L361 37Q273 -10 191 -10Q121 -10 82 29Q42 67 42 136Q42 197 64 231Q85 264 138 278Q190 292 283 292Q294 292 313 292Q331 292 350 291L350 318Q350 358 331 373Q312 387 260 387Q223 387 178 381Q132 375 86 364L75 480Q116 491 178 498Q239 505 296 505ZM211 146Q211 102 256 102Q301 102 350 128L350 193Q340 194 333 194Q325 194 318 194Q272 194 249 191Q226 187 219 177Q211 167 211 146Z"  horiz-adv-x="583" vert-adv-y="1000"  />
      <glyph glyph-name="aacute" unicode="&#xe1;" d="M421 746L429 634L206 548L178 637ZM296 505Q384 505 434 488Q484 470 505 428Q526 385 526 310L526 0L375 0L361 37Q273 -10 191 -10Q121 -10 82 29Q42 67 42 136Q42 197 64 231Q85 264 138 278Q190 292 283 292Q294 292 313 292Q331 292 350 291L350 318Q350 358 331 373Q312 387 260 387Q223 387 178 381Q132 375 86 364L75 480Q116 491 178 498Q239 505 296 505ZM211 146Q211 102 256 102Q301 102 350 128L350 193Q340 194 333 194Q325 194 318 194Q272 194 249 191Q226 187 219 177Q211 167 211 146Z"  horiz-adv-x="583" vert-adv-y="1000"  />
      <glyph glyph-name="abreve" unicode="&#x103;" d="M291 544Q209 544 163 580Q117 615 117 678L214 689Q214 630 291 630Q368 630 368 689L464 678Q464 615 418 580Q372 544 291 544ZM296 505Q384 505 434 488Q484 470 505 428Q526 385 526 310L526 0L375 0L361 37Q273 -10 191 -10Q121 -10 82 29Q42 67 42 136Q42 197 64 231Q85 264 138 278Q190 292 283 292Q294 292 313 292Q331 292 350 291L350 318Q350 358 331 373Q312 387 260 387Q223 387 178 381Q132 375 86 364L75 480Q116 491 178 498Q239 505 296 505ZM211 146Q211 102 256 102Q301 102 350 128L350 193Q340 194 333 194Q325 194 318 194Q272 194 249 191Q226 187 219 177Q211 167 211 146Z"  horiz-adv-x="583" vert-adv-y="1000"  />
      <glyph glyph-name="acircumflex" unicode="&#xe2;" d="M446 548L290 622L134 547L108 628L290 738L480 627ZM296 505Q384 505 434 488Q484 470 505 428Q526 385 526 310L526 0L375 0L361 37Q273 -10 191 -10Q121 -10 82 29Q42 67 42 136Q42 197 64 231Q85 264 138 278Q190 292 283 292Q294 292 313 292Q331 292 350 291L350 318Q350 358 331 373Q312 387 260 387Q223 387 178 381Q132 375 86 364L75 480Q116 491 178 498Q239 505 296 505ZM211 146Q211 102 256 102Q301 102 350 128L350 193Q340 194 333 194Q325 194 318 194Q272 194 249 191Q226 187 219 177Q211 167 211 146Z"  horiz-adv-x="583" vert-adv-y="1000"  />
      <glyph glyph-name="adieresis" unicode="&#xe4;" d="M167 560Q129 560 112 567Q94 574 90 591Q85 607 85 635Q85 664 90 680Q94 696 112 703Q129 710 167 710Q206 710 223 703Q240 696 245 680Q249 664 249 635Q249 607 245 591Q240 574 223 567Q206 560 167 560ZM414 560Q376 560 359 567Q341 574 337 591Q332 607 332 635Q332 664 337 680Q341 696 359 703Q376 710 414 710Q453 710 470 703Q487 696 492 680Q496 664 496 635Q496 607 492 591Q487 574 470 567Q453 560 414 560ZM296 505Q384 505 434 488Q484 470 505 428Q526 385 526 310L526 0L375 0L361 37Q273 -10 191 -10Q121 -10 82 29Q42 67 42 136Q42 197 64 231Q85 264 138 278Q190 292 283 292Q294 292 313 292Q331 292 350 291L350 318Q350 358 331 373Q312 387 260 387Q223 387 178 381Q132 375 86 364L75 480Q116 491 178 498Q239 505 296 505ZM211 146Q211 102 256 102Q301 102 350 128L350 193Q340 194 333 194Q325 194 318 194Q272 194 249 191Q226 187 219 177Q211 167 211 146Z"  horiz-adv-x="583" vert-adv-y="1000"  />
      <glyph glyph-name="agrave" unicode="&#xe0;" d="M167 746L410 637L382 548L159 634ZM296 505Q384 505 434 488Q484 470 505 428Q526 385 526 310L526 0L375 0L361 37Q273 -10 191 -10Q121 -10 82 29Q42 67 42 136Q42 197 64 231Q85 264 138 278Q190 292 283 292Q294 292 313 292Q331 292 350 291L350 318Q350 358 331 373Q312 387 260 387Q223 387 178 381Q132 375 86 364L75 480Q116 491 178 498Q239 505 296 505ZM211 146Q211 102 256 102Q301 102 350 128L350 193Q340 194 333 194Q325 194 318 194Q272 194 249 191Q226 187 219 177Q211 167 211 146Z"  horiz-adv-x="583" vert-adv-y="1000"  />
      <glyph glyph-name="amacron" unicode="&#x101;" d="M127 667L454 667L454 575L127 575ZM296 505Q384 505 434 488Q484 470 505 428Q526 385 526 310L526 0L375 0L361 37Q273 -10 191 -10Q121 -10 82 29Q42 67 42 136Q42 197 64 231Q85 264 138 278Q190 292 283 292Q294 292 313 292Q331 292 350 291L350 318Q350 358 331 373Q312 387 260 387Q223 387 178 381Q132 375 86 364L75 480Q116 491 178 498Q239 505 296 505ZM211 146Q211 102 256 102Q301 102 350 128L350 193Q340 194 333 194Q325 194 318 194Q272 194 249 191Q226 187 219 177Q211 167 211 146Z"  horiz-adv-x="583" vert-adv-y="1000"  />
      <glyph glyph-name="aogonek" unicode="&#x105;" d="M526 0L514 0Q474 -19 449 -47Q423 -74 423 -99Q423 -131 466 -131Q495 -131 516 -127L525 -197Q497 -207 446 -207Q384 -207 347 -185Q310 -163 310 -126Q310 -53 389 0L375 0L361 37Q273 -10 191 -10Q121 -10 82 29Q42 67 42 136Q42 197 64 231Q85 264 138 278Q190 292 283 292Q294 292 313 292Q331 292 350 291L350 318Q350 358 331 373Q312 387 260 387Q223 387 178 381Q132 375 86 364L75 480Q116 491 178 498Q239 505 296 505Q384 505 434 488Q484 470 505 428Q526 385 526 310ZM211 146Q211 102 256 102Q301 102 350 128L350 193Q340 194 333 194Q325 194 318 194Q272 194 249 191Q226 187 219 177Q211 167 211 146Z"  horiz-adv-x="583" vert-adv-y="1000"  />
      <glyph glyph-name="aring" unicode="&#xe5;" d="M290 538Q237 538 204 565Q171 591 171 637Q171 681 204 709Q237 736 290 736Q346 736 378 709Q410 681 410 637Q410 593 378 566Q346 538 290 538ZM290 678Q246 678 246 637Q246 597 290 597Q336 597 336 637Q336 678 290 678ZM296 505Q384 505 434 488Q484 470 505 428Q526 385 526 310L526 0L375 0L361 37Q273 -10 191 -10Q121 -10 82 29Q42 67 42 136Q42 197 64 231Q85 264 138 278Q190 292 283 292Q294 292 313 292Q331 292 350 291L350 318Q350 358 331 373Q312 387 260 387Q223 387 178 381Q132 375 86 364L75 480Q116 491 178 498Q239 505 296 505ZM211 146Q211 102 256 102Q301 102 350 128L350 193Q340 194 333 194Q325 194 318 194Q272 194 249 191Q226 187 219 177Q211 167 211 146Z"  horiz-adv-x="583" vert-adv-y="1000"  />
      <glyph glyph-name="atilde" unicode="&#xe3;" d="M218 602Q193 602 171 590Q148 578 132 565L98 644Q119 666 151 683Q183 700 216 700Q249 700 275 691Q301 682 322 673Q343 664 362 664Q412 664 440 700L475 625Q459 597 428 582Q396 567 358 567Q326 567 304 576Q281 585 262 594Q242 602 218 602ZM296 505Q384 505 434 488Q484 470 505 428Q526 385 526 310L526 0L375 0L361 37Q273 -10 191 -10Q121 -10 82 29Q42 67 42 136Q42 197 64 231Q85 264 138 278Q190 292 283 292Q294 292 313 292Q331 292 350 291L350 318Q350 358 331 373Q312 387 260 387Q223 387 178 381Q132 375 86 364L75 480Q116 491 178 498Q239 505 296 505ZM211 146Q211 102 256 102Q301 102 350 128L350 193Q340 194 333 194Q325 194 318 194Q272 194 249 191Q226 187 219 177Q211 167 211 146Z"  horiz-adv-x="583" vert-adv-y="1000"  />
      <glyph glyph-name="ae" unicode="&#xe6;" d="M839 244L839 197L526 197L526 193Q526 142 549 125Q572 107 626 107Q676 107 725 115Q774 122 820 133L833 16Q788 6 728 -3Q667 -11 602 -11Q538 -11 492 3Q446 16 416 41Q379 22 348 11Q316 -1 283 -6Q249 -11 206 -11Q132 -11 87 28Q42 67 42 135Q42 201 68 235Q93 268 150 280Q207 292 303 292Q308 292 320 292Q331 292 350 291L350 318Q350 339 345 355Q340 370 321 379Q302 387 260 387Q214 387 168 380Q121 373 86 364L75 480Q113 490 174 498Q235 505 296 505Q397 505 455 472Q484 487 521 496Q558 505 605 505Q679 505 726 487Q772 468 797 434Q821 399 830 351Q839 303 839 244ZM602 389Q554 389 540 365Q526 340 526 304L526 294L672 294L672 305Q672 349 657 369Q642 389 602 389ZM211 145Q211 101 258 101Q287 101 313 108Q338 115 363 128Q353 158 352 193Q336 194 324 194Q312 194 302 194Q247 194 229 186Q211 177 211 145Z"  horiz-adv-x="884" vert-adv-y="1000"  />
      <glyph glyph-name="b" unicode="&#x62;" d="M386 505Q456 505 498 480Q540 455 559 399Q577 343 577 248Q577 152 551 96Q525 39 466 14Q407 -11 308 -11Q275 -11 233 -9Q191 -7 147 -4Q103 -1 64 3L64 694L240 710L240 484Q315 505 386 505ZM296 111Q339 111 362 122Q384 132 393 162Q401 192 401 248Q401 305 395 334Q389 363 373 373Q356 382 322 382Q301 382 281 377Q261 372 240 366L240 113Q251 112 265 112Q279 111 296 111Z"  horiz-adv-x="618" vert-adv-y="1000"  />
      <glyph glyph-name="c" unicode="&#x63;" d="M293 -10Q200 -10 144 15Q88 40 63 97Q38 154 38 248Q38 344 63 401Q88 457 145 482Q201 506 297 506Q340 506 379 503Q418 500 455 493L440 369Q415 376 378 380Q340 384 308 384Q271 384 251 373Q230 362 222 333Q214 303 214 248Q214 193 222 164Q230 134 251 123Q272 112 310 112Q334 112 367 117Q399 121 441 129L458 5Q415 -2 373 -6Q331 -10 293 -10Z"  horiz-adv-x="483" vert-adv-y="1000"  />
      <glyph glyph-name="cacute" unicode="&#x107;" d="M401 634L178 548L150 637L393 746ZM293 -10Q200 -10 144 15Q88 40 63 97Q38 154 38 248Q38 344 63 401Q88 457 145 482Q201 506 297 506Q340 506 379 503Q418 500 455 493L440 369Q415 376 378 380Q340 384 308 384Q271 384 251 373Q230 362 222 333Q214 303 214 248Q214 193 222 164Q230 134 251 123Q272 112 310 112Q334 112 367 117Q399 121 441 129L458 5Q415 -2 373 -6Q331 -10 293 -10Z"  horiz-adv-x="483" vert-adv-y="1000"  />
      <glyph glyph-name="ccaron" unicode="&#x10d;" d="M463 654L280 544L91 655L125 734L280 660L437 735ZM293 -10Q200 -10 144 15Q88 40 63 97Q38 154 38 248Q38 344 63 401Q88 457 145 482Q201 506 297 506Q340 506 379 503Q418 500 455 493L440 369Q415 376 378 380Q340 384 308 384Q271 384 251 373Q230 362 222 333Q214 303 214 248Q214 193 222 164Q230 134 251 123Q272 112 310 112Q334 112 367 117Q399 121 441 129L458 5Q415 -2 373 -6Q331 -10 293 -10Z"  horiz-adv-x="483" vert-adv-y="1000"  />
      <glyph glyph-name="ccedilla" unicode="&#xe7;" d="M305 -10L299 -32Q366 -34 391 -50Q416 -65 416 -98L416 -137Q416 -177 387 -192Q358 -207 278 -207Q249 -207 222 -205Q195 -202 156 -196L174 -124Q227 -136 279 -136Q292 -136 296 -134Q299 -131 299 -124L299 -106Q299 -97 295 -95Q291 -93 277 -93Q270 -93 250 -96L191 -82L217 -5Q120 9 79 68Q38 127 38 248Q38 344 63 401Q88 457 145 482Q201 506 297 506Q340 506 379 503Q418 500 455 493L440 369Q415 376 378 380Q340 384 308 384Q271 384 251 373Q230 362 222 333Q214 303 214 248Q214 193 222 164Q230 134 251 123Q272 112 310 112Q334 112 367 117Q399 121 441 129L458 5Q419 -2 380 -6Q341 -9 305 -10Z"  horiz-adv-x="483" vert-adv-y="1000"  />
      <glyph glyph-name="ccircumflex" unicode="&#x109;" d="M278 622L122 547L96 628L278 738L468 627L434 548ZM293 -10Q200 -10 144 15Q88 40 63 97Q38 154 38 248Q38 344 63 401Q88 457 145 482Q201 506 297 506Q340 506 379 503Q418 500 455 493L440 369Q415 376 378 380Q340 384 308 384Q271 384 251 373Q230 362 222 333Q214 303 214 248Q214 193 222 164Q230 134 251 123Q272 112 310 112Q334 112 367 117Q399 121 441 129L458 5Q415 -2 373 -6Q331 -10 293 -10Z"  horiz-adv-x="483" vert-adv-y="1000"  />
      <glyph glyph-name="cdotaccent" unicode="&#x10b;" d="M279 560Q241 560 224 567Q206 574 202 591Q197 607 197 635Q197 664 202 680Q206 696 224 703Q241 710 279 710Q318 710 335 703Q352 696 357 680Q361 664 361 635Q361 607 357 591Q352 574 335 567Q318 560 279 560ZM293 -10Q200 -10 144 15Q88 40 63 97Q38 154 38 248Q38 344 63 401Q88 457 145 482Q201 506 297 506Q340 506 379 503Q418 500 455 493L440 369Q415 376 378 380Q340 384 308 384Q271 384 251 373Q230 362 222 333Q214 303 214 248Q214 193 222 164Q230 134 251 123Q272 112 310 112Q334 112 367 117Q399 121 441 129L458 5Q415 -2 373 -6Q331 -10 293 -10Z"  horiz-adv-x="483" vert-adv-y="1000"  />
      <glyph glyph-name="d" unicode="&#x64;" d="M386 492L386 694L562 710L562 0L413 0L402 30Q341 -9 247 -9Q136 -9 89 51Q41 110 41 248Q41 385 93 445Q144 505 262 505Q294 505 326 502Q358 498 386 492ZM217 248Q217 167 232 139Q247 110 289 110Q344 110 386 143L386 370Q342 381 299 381Q251 381 234 354Q217 326 217 248Z"  horiz-adv-x="627" vert-adv-y="1000"  />
      <glyph glyph-name="eth" unicode="&#xf0;" d="M480 644L425 612Q501 555 535 463Q569 371 569 234Q569 106 506 48Q443 -11 305 -11Q167 -11 104 47Q41 105 41 232Q41 346 102 397Q162 447 293 447Q312 447 328 445Q344 443 360 439Q344 491 294 536L207 485L165 537L236 579Q211 595 181 610Q150 624 115 638L243 695Q310 677 361 652L435 695ZM304 111Q356 111 375 133Q393 155 393 218Q393 280 375 302Q356 324 304 324Q252 324 235 302Q217 280 217 218Q217 155 235 133Q253 111 304 111Z"  horiz-adv-x="610" vert-adv-y="1000"  />
      <glyph glyph-name="dcaron" unicode="&#x10f;" d="M616 499L662 713L809 691L734 476ZM386 492L386 694L562 710L562 0L413 0L402 30Q341 -9 247 -9Q136 -9 89 51Q41 110 41 248Q41 385 93 445Q144 505 262 505Q294 505 326 502Q358 498 386 492ZM217 248Q217 167 232 139Q247 110 289 110Q344 110 386 143L386 370Q342 381 299 381Q251 381 234 354Q217 326 217 248Z"  horiz-adv-x="627" vert-adv-y="1000"  />
      <glyph glyph-name="dcroat" unicode="&#x111;" d="M562 656L641 656L641 548L562 548L562 0L413 0L402 30Q341 -9 247 -9Q136 -9 89 51Q41 110 41 248Q41 385 93 445Q144 505 262 505Q294 505 326 502Q358 498 386 492L386 548L221 548L221 656L386 656L386 694L562 710ZM217 248Q217 167 232 139Q247 110 289 110Q344 110 386 143L386 370Q342 381 299 381Q251 381 234 354Q217 326 217 248Z"  horiz-adv-x="627" vert-adv-y="1000"  />
      <glyph glyph-name="e" unicode="&#x65;" d="M529 269L529 197L217 197L217 193Q217 144 239 126Q260 107 317 107Q359 107 407 114Q455 120 511 133L524 16Q469 3 409 -4Q348 -11 293 -11Q159 -11 100 49Q41 109 41 244Q41 383 101 444Q160 505 296 505Q419 505 474 450Q529 394 529 269ZM293 389Q252 389 235 369Q217 349 217 304L217 294L363 294L363 305Q363 351 347 370Q331 389 293 389Z"  horiz-adv-x="575" vert-adv-y="1000"  />
      <glyph glyph-name="eacute" unicode="&#xe9;" d="M423 746L431 634L208 548L180 637ZM529 269L529 197L217 197L217 193Q217 144 239 126Q260 107 317 107Q359 107 407 114Q455 120 511 133L524 16Q469 3 409 -4Q348 -11 293 -11Q159 -11 100 49Q41 109 41 244Q41 383 101 444Q160 505 296 505Q419 505 474 450Q529 394 529 269ZM293 389Q252 389 235 369Q217 349 217 304L217 294L363 294L363 305Q363 351 347 370Q331 389 293 389Z"  horiz-adv-x="575" vert-adv-y="1000"  />
      <glyph glyph-name="ecaron" unicode="&#x11b;" d="M448 735L474 654L291 544L102 655L136 734L291 660ZM529 269L529 197L217 197L217 193Q217 144 239 126Q260 107 317 107Q359 107 407 114Q455 120 511 133L524 16Q469 3 409 -4Q348 -11 293 -11Q159 -11 100 49Q41 109 41 244Q41 383 101 444Q160 505 296 505Q419 505 474 450Q529 394 529 269ZM293 389Q252 389 235 369Q217 349 217 304L217 294L363 294L363 305Q363 351 347 370Q331 389 293 389Z"  horiz-adv-x="575" vert-adv-y="1000"  />
      <glyph glyph-name="ecircumflex" unicode="&#xea;" d="M440 548L284 622L128 547L102 628L284 738L474 627ZM529 269L529 197L217 197L217 193Q217 144 239 126Q260 107 317 107Q359 107 407 114Q455 120 511 133L524 16Q469 3 409 -4Q348 -11 293 -11Q159 -11 100 49Q41 109 41 244Q41 383 101 444Q160 505 296 505Q419 505 474 450Q529 394 529 269ZM293 389Q252 389 235 369Q217 349 217 304L217 294L363 294L363 305Q363 351 347 370Q331 389 293 389Z"  horiz-adv-x="575" vert-adv-y="1000"  />
      <glyph glyph-name="edieresis" unicode="&#xeb;" d="M165 560Q127 560 110 567Q92 574 88 591Q83 607 83 635Q83 664 88 680Q92 696 110 703Q127 710 165 710Q204 710 221 703Q238 696 243 680Q247 664 247 635Q247 607 243 591Q238 574 221 567Q204 560 165 560ZM412 560Q374 560 357 567Q339 574 335 591Q330 607 330 635Q330 664 335 680Q339 696 357 703Q374 710 412 710Q451 710 468 703Q485 696 490 680Q494 664 494 635Q494 607 490 591Q485 574 468 567Q451 560 412 560ZM529 269L529 197L217 197L217 193Q217 144 239 126Q260 107 317 107Q359 107 407 114Q455 120 511 133L524 16Q469 3 409 -4Q348 -11 293 -11Q159 -11 100 49Q41 109 41 244Q41 383 101 444Q160 505 296 505Q419 505 474 450Q529 394 529 269ZM293 389Q252 389 235 369Q217 349 217 304L217 294L363 294L363 305Q363 351 347 370Q331 389 293 389Z"  horiz-adv-x="575" vert-adv-y="1000"  />
      <glyph glyph-name="edotaccent" unicode="&#x117;" d="M287 560Q248 560 231 567Q214 574 210 591Q205 607 205 635Q205 664 210 680Q214 696 231 703Q248 710 287 710Q326 710 343 703Q360 696 365 680Q369 664 369 635Q369 607 365 591Q360 574 343 567Q326 560 287 560ZM529 269L529 197L217 197L217 193Q217 144 239 126Q260 107 317 107Q359 107 407 114Q455 120 511 133L524 16Q469 3 409 -4Q348 -11 293 -11Q159 -11 100 49Q41 109 41 244Q41 383 101 444Q160 505 296 505Q419 505 474 450Q529 394 529 269ZM293 389Q252 389 235 369Q217 349 217 304L217 294L363 294L363 305Q363 351 347 370Q331 389 293 389Z"  horiz-adv-x="575" vert-adv-y="1000"  />
      <glyph glyph-name="egrave" unicode="&#xe8;" d="M146 746L389 637L361 548L138 634ZM529 269L529 197L217 197L217 193Q217 144 239 126Q260 107 317 107Q359 107 407 114Q455 120 511 133L524 16Q469 3 409 -4Q348 -11 293 -11Q159 -11 100 49Q41 109 41 244Q41 383 101 444Q160 505 296 505Q419 505 474 450Q529 394 529 269ZM293 389Q252 389 235 369Q217 349 217 304L217 294L363 294L363 305Q363 351 347 370Q331 389 293 389Z"  horiz-adv-x="575" vert-adv-y="1000"  />
      <glyph glyph-name="emacron" unicode="&#x113;" d="M124 667L451 667L451 575L124 575ZM529 269L529 197L217 197L217 193Q217 144 239 126Q260 107 317 107Q359 107 407 114Q455 120 511 133L524 16Q469 3 409 -4Q348 -11 293 -11Q159 -11 100 49Q41 109 41 244Q41 383 101 444Q160 505 296 505Q419 505 474 450Q529 394 529 269ZM293 389Q252 389 235 369Q217 349 217 304L217 294L363 294L363 305Q363 351 347 370Q331 389 293 389Z"  horiz-adv-x="575" vert-adv-y="1000"  />
      <glyph glyph-name="eogonek" unicode="&#x119;" d="M529 269L529 197L217 197L217 193Q217 144 239 126Q260 107 317 107Q359 107 407 114Q455 120 511 133L524 16Q469 -6 434 -39Q399 -71 399 -100Q399 -131 441 -131Q469 -131 490 -127L500 -197Q470 -207 420 -207Q358 -207 321 -185Q284 -163 284 -126Q284 -60 350 -9Q336 -10 322 -11Q307 -11 293 -11Q159 -11 100 49Q41 109 41 244Q41 383 101 444Q160 505 296 505Q419 505 474 450Q529 394 529 269ZM293 389Q252 389 235 369Q217 349 217 304L217 294L363 294L363 305Q363 351 347 370Q331 389 293 389Z"  horiz-adv-x="575" vert-adv-y="1000"  />
      <glyph glyph-name="uni0259" unicode="&#x259;" d="M281 505Q415 505 474 445Q533 385 533 250Q533 111 474 50Q414 -11 278 -11Q155 -11 100 45Q45 101 45 225L45 297L357 297L357 301Q357 350 336 369Q314 387 257 387Q215 387 167 381Q119 375 63 361L50 478Q105 491 166 498Q226 505 281 505ZM281 105Q322 105 340 125Q357 145 357 190L357 200L211 200L211 189Q211 143 228 124Q244 105 281 105Z"  horiz-adv-x="575" vert-adv-y="1000"  />
      <glyph glyph-name="f" unicode="&#x66;" d="M334 586Q300 586 285 573Q270 560 270 529L270 496L401 496L385 372L270 372L270 0L94 0L94 372L14 372L14 496L94 496L94 552Q94 632 144 670Q193 707 299 707Q332 707 365 705Q398 703 427 698L417 577Q366 586 334 586Z"  horiz-adv-x="416" vert-adv-y="1000"  />
      <glyph glyph-name="g" unicode="&#x67;" d="M318 505Q366 505 431 502Q495 498 555 491L555 -40Q555 -127 492 -166Q429 -205 289 -205Q228 -205 166 -199Q104 -192 54 -180L67 -60Q118 -73 173 -80Q228 -86 278 -86Q337 -86 358 -76Q379 -65 379 -34L379 9Q305 -11 240 -11Q165 -11 122 13Q79 37 61 94Q42 151 42 248Q42 345 68 401Q94 457 155 481Q215 505 318 505ZM296 112Q331 112 379 128L379 381Q367 383 354 383Q340 383 322 383Q279 383 257 373Q234 362 226 333Q218 304 218 248Q218 190 224 161Q229 132 246 122Q263 112 296 112Z"  horiz-adv-x="620" vert-adv-y="1000"  />
      <glyph glyph-name="gbreve" unicode="&#x11f;" d="M314 544Q232 544 186 580Q140 615 140 678L237 689Q237 630 314 630Q391 630 391 689L487 678Q487 615 441 580Q395 544 314 544ZM318 505Q366 505 431 502Q495 498 555 491L555 -40Q555 -127 492 -166Q429 -205 289 -205Q228 -205 166 -199Q104 -192 54 -180L67 -60Q118 -73 173 -80Q228 -86 278 -86Q337 -86 358 -76Q379 -65 379 -34L379 9Q305 -11 240 -11Q165 -11 122 13Q79 37 61 94Q42 151 42 248Q42 345 68 401Q94 457 155 481Q215 505 318 505ZM296 112Q331 112 379 128L379 381Q367 383 354 383Q340 383 322 383Q279 383 257 373Q234 362 226 333Q218 304 218 248Q218 190 224 161Q229 132 246 122Q263 112 296 112Z"  horiz-adv-x="620" vert-adv-y="1000"  />
      <glyph glyph-name="gcircumflex" unicode="&#x11d;" d="M471 548L315 622L159 547L133 628L315 738L505 627ZM318 505Q366 505 431 502Q495 498 555 491L555 -40Q555 -127 492 -166Q429 -205 289 -205Q228 -205 166 -199Q104 -192 54 -180L67 -60Q118 -73 173 -80Q228 -86 278 -86Q337 -86 358 -76Q379 -65 379 -34L379 9Q305 -11 240 -11Q165 -11 122 13Q79 37 61 94Q42 151 42 248Q42 345 68 401Q94 457 155 481Q215 505 318 505ZM296 112Q331 112 379 128L379 381Q367 383 354 383Q340 383 322 383Q279 383 257 373Q234 362 226 333Q218 304 218 248Q218 190 224 161Q229 132 246 122Q263 112 296 112Z"  horiz-adv-x="620" vert-adv-y="1000"  />
      <glyph glyph-name="uni0123" unicode="&#x123;" d="M440 746L448 634L225 548L197 637ZM318 505Q366 505 431 502Q495 498 555 491L555 -40Q555 -127 492 -166Q429 -205 289 -205Q228 -205 166 -199Q104 -192 54 -180L67 -60Q118 -73 173 -80Q228 -86 278 -86Q337 -86 358 -76Q379 -65 379 -34L379 9Q305 -11 240 -11Q165 -11 122 13Q79 37 61 94Q42 151 42 248Q42 345 68 401Q94 457 155 481Q215 505 318 505ZM296 112Q331 112 379 128L379 381Q367 383 354 383Q340 383 322 383Q279 383 257 373Q234 362 226 333Q218 304 218 248Q218 190 224 161Q229 132 246 122Q263 112 296 112Z"  horiz-adv-x="620" vert-adv-y="1000"  />
      <glyph glyph-name="gdotaccent" unicode="&#x121;" d="M314 560Q276 560 259 567Q241 574 237 591Q232 607 232 635Q232 664 237 680Q241 696 259 703Q276 710 314 710Q353 710 370 703Q387 696 392 680Q396 664 396 635Q396 607 392 591Q387 574 370 567Q353 560 314 560ZM318 505Q366 505 431 502Q495 498 555 491L555 -40Q555 -127 492 -166Q429 -205 289 -205Q228 -205 166 -199Q104 -192 54 -180L67 -60Q118 -73 173 -80Q228 -86 278 -86Q337 -86 358 -76Q379 -65 379 -34L379 9Q305 -11 240 -11Q165 -11 122 13Q79 37 61 94Q42 151 42 248Q42 345 68 401Q94 457 155 481Q215 505 318 505ZM296 112Q331 112 379 128L379 381Q367 383 354 383Q340 383 322 383Q279 383 257 373Q234 362 226 333Q218 304 218 248Q218 190 224 161Q229 132 246 122Q263 112 296 112Z"  horiz-adv-x="620" vert-adv-y="1000"  />
      <glyph glyph-name="h" unicode="&#x68;" d="M431 505Q500 505 533 470Q565 434 565 359L565 0L389 0L389 317Q389 363 347 363Q329 363 299 354Q269 344 240 330L240 0L64 0L64 694L240 710L240 454Q294 480 341 493Q388 505 431 505Z"  horiz-adv-x="624" vert-adv-y="1000"  />
      <glyph glyph-name="hbar" unicode="&#x127;" d="M428 505Q497 505 530 470Q562 434 562 359L562 0L386 0L386 317Q386 363 344 363Q326 363 296 354Q266 344 237 330L237 0L61 0L61 548L-13 548L-13 656L61 656L61 694L237 710L237 656L406 656L406 548L237 548L237 454Q291 480 338 493Q385 505 428 505Z"  horiz-adv-x="624" vert-adv-y="1000"  />
      <glyph glyph-name="hcircumflex" unicode="&#x125;" d="M383 801L349 722L193 796L37 721L11 802L193 912ZM431 505Q500 505 533 470Q565 434 565 359L565 0L389 0L389 317Q389 363 347 363Q329 363 299 354Q269 344 240 330L240 0L64 0L64 694L240 710L240 454Q294 480 341 493Q388 505 431 505Z"  horiz-adv-x="624" vert-adv-y="1000"  />
      <glyph glyph-name="i" unicode="&#x69;" d="M154 560Q112 560 93 567Q74 574 70 591Q65 607 65 635Q65 664 70 680Q74 696 93 703Q112 710 154 710Q197 710 216 703Q234 696 239 680Q244 664 244 635Q244 607 239 591Q234 574 216 567Q197 560 154 560ZM243 0L67 0L67 496L243 496Z"  horiz-adv-x="310" vert-adv-y="1000"  />
      <glyph glyph-name="dotlessi" unicode="&#x131;" d="M243 0L67 0L67 496L243 496Z"  horiz-adv-x="310" vert-adv-y="1000"  />
      <glyph glyph-name="iacute" unicode="&#xed;" d="M302 634L79 548L51 637L294 746ZM243 0L67 0L67 496L243 496Z"  horiz-adv-x="310" vert-adv-y="1000"  />
      <glyph glyph-name="icircumflex" unicode="&#xee;" d="M151 622L6 547L-18 628L151 738L328 627L296 548ZM243 0L67 0L67 496L243 496Z"  horiz-adv-x="310" vert-adv-y="1000"  />
      <glyph glyph-name="idieresis" unicode="&#xef;" d="M39 560Q4 560 -13 567Q-29 574 -33 591Q-37 607 -37 635Q-37 664 -33 680Q-29 696 -13 703Q4 710 39 710Q75 710 92 703Q108 696 112 680Q116 664 116 635Q116 607 112 591Q108 574 92 567Q75 560 39 560ZM269 560Q234 560 218 567Q201 574 197 591Q193 607 193 635Q193 664 197 680Q201 696 218 703Q234 710 269 710Q305 710 321 703Q337 696 341 680Q345 664 345 635Q345 607 341 591Q337 574 321 567Q305 560 269 560ZM243 0L67 0L67 496L243 496Z"  horiz-adv-x="310" vert-adv-y="1000"  />
      <glyph glyph-name="igrave" unicode="&#xec;" d="M260 637L232 548L9 634L17 746ZM243 0L67 0L67 496L243 496Z"  horiz-adv-x="310" vert-adv-y="1000"  />
      <glyph glyph-name="ij" unicode="&#x133;" d="M154 560Q112 560 93 567Q74 574 70 591Q65 607 65 635Q65 664 70 680Q74 696 93 703Q112 710 154 710Q197 710 216 703Q234 696 239 680Q244 664 244 635Q244 607 239 591Q234 574 216 567Q197 560 154 560ZM464 560Q422 560 403 567Q384 574 380 591Q375 607 375 635Q375 664 380 680Q384 696 403 703Q422 710 464 710Q507 710 526 703Q544 696 549 680Q554 664 554 635Q554 607 549 591Q544 574 526 567Q507 560 464 560ZM243 0L67 0L67 496L243 496ZM322 -203L268 -90Q316 -74 339 -63Q362 -52 370 -37Q377 -22 377 4L377 496L553 496L553 -21Q553 -65 544 -92Q535 -119 511 -137Q486 -155 441 -170Q395 -184 322 -203Z"  horiz-adv-x="620" vert-adv-y="1000"  />
      <glyph glyph-name="imacron" unicode="&#x12b;" d="M306 575L2 575L2 667L306 667ZM243 0L67 0L67 496L243 496Z"  horiz-adv-x="310" vert-adv-y="1000"  />
      <glyph glyph-name="iogonek" unicode="&#x12f;" d="M154 560Q112 560 93 567Q74 574 70 591Q65 607 65 635Q65 664 70 680Q74 696 93 703Q112 710 154 710Q197 710 216 703Q234 696 239 680Q244 664 244 635Q244 607 239 591Q234 574 216 567Q197 560 154 560ZM97 0L67 0L67 496L243 496L243 0L215 0Q182 -19 162 -47Q141 -74 141 -99Q141 -131 181 -131Q208 -131 228 -127L238 -197Q208 -207 160 -207Q100 -207 64 -185Q28 -163 28 -126Q28 -52 97 0Z"  horiz-adv-x="310" vert-adv-y="1000"  />
      <glyph glyph-name="j" unicode="&#x6a;" d="M154 560Q112 560 93 567Q74 574 70 591Q65 607 65 635Q65 664 70 680Q74 696 93 703Q112 710 154 710Q197 710 216 703Q234 696 239 680Q244 664 244 635Q244 607 239 591Q234 574 216 567Q197 560 154 560ZM12 -203L-42 -90Q6 -74 29 -63Q52 -52 60 -37Q67 -22 67 4L67 496L243 496L243 -21Q243 -65 234 -92Q225 -119 201 -137Q176 -155 131 -170Q85 -184 12 -203Z"  horiz-adv-x="310" vert-adv-y="1000"  />
      <glyph glyph-name="uni0237" unicode="&#x237;" d="M12 -203L-42 -90Q6 -74 29 -63Q52 -52 60 -37Q67 -22 67 4L67 496L243 496L243 -21Q243 -65 234 -92Q225 -119 201 -137Q176 -155 131 -170Q85 -184 12 -203Z"  horiz-adv-x="310" vert-adv-y="1000"  />
      <glyph glyph-name="jcircumflex" unicode="&#x135;" d="M151 622L6 547L-18 628L151 738L328 627L296 548ZM12 -203L-42 -90Q6 -74 29 -63Q52 -52 60 -37Q67 -22 67 4L67 496L243 496L243 -21Q243 -65 234 -92Q225 -119 201 -137Q176 -155 131 -170Q85 -184 12 -203Z"  horiz-adv-x="310" vert-adv-y="1000"  />
      <glyph glyph-name="k" unicode="&#x6b;" d="M675 0L473 0L333 181L240 181L240 0L64 0L64 694L240 710L240 337L332 337L461 496L663 496L471 259Z"  horiz-adv-x="686" vert-adv-y="1000"  />
      <glyph glyph-name="uni0137" unicode="&#x137;" d="M663 496L471 259L675 0L473 0L333 181L240 181L240 0L64 0L64 694L240 710L240 337L332 337L461 496ZM336 -50Q371 -50 386 -54Q401 -58 405 -68Q409 -77 409 -95L409 -117Q409 -128 407 -137Q405 -146 397 -156L359 -206Q355 -212 349 -212Q342 -211 322 -206Q303 -201 301 -198Q298 -194 302 -187L320 -155Q323 -149 323 -146Q323 -139 307 -138Q279 -136 271 -129Q262 -121 262 -95Q262 -77 266 -68Q270 -58 286 -54Q301 -50 336 -50Z"  horiz-adv-x="686" vert-adv-y="1000"  />
      <glyph glyph-name="l" unicode="&#x6c;" d="M188 -10Q132 -10 106 3Q79 15 71 47Q63 78 63 134L63 694L238 710L238 140Q238 128 245 123Q252 117 262 117Q268 117 282 119Q295 120 314 125L342 12Q268 -10 188 -10Z"  horiz-adv-x="352" vert-adv-y="1000"  />
      <glyph glyph-name="lacute" unicode="&#x13a;" d="M294 808L71 722L43 811L286 920ZM188 -10Q132 -10 106 3Q79 15 71 47Q63 78 63 134L63 694L238 710L238 140Q238 128 245 123Q252 117 262 117Q268 117 282 119Q295 120 314 125L342 12Q268 -10 188 -10Z"  horiz-adv-x="337" vert-adv-y="1000"  />
      <glyph glyph-name="lcaron" unicode="&#x13e;" d="M487 691L412 476L294 499L340 713ZM188 -10Q132 -10 106 3Q79 15 71 47Q63 78 63 134L63 694L238 710L238 140Q238 128 245 123Q252 117 262 117Q268 117 282 119Q295 120 314 125L342 12Q268 -10 188 -10Z"  horiz-adv-x="337" vert-adv-y="1000"  />
      <glyph glyph-name="uni013C" unicode="&#x13c;" d="M188 -10Q132 -10 106 3Q79 15 71 47Q63 78 63 134L63 694L238 710L238 140Q238 128 245 123Q252 117 262 117Q268 117 282 119Q295 120 314 125L342 12Q268 -10 188 -10ZM183 -206Q164 -201 162 -198Q159 -194 163 -187L181 -155Q184 -149 184 -146Q184 -139 168 -138Q140 -136 132 -129Q123 -121 123 -95Q123 -77 127 -68Q131 -58 147 -54Q162 -50 197 -50Q232 -50 247 -54Q262 -58 266 -68Q270 -77 270 -95L270 -117Q270 -128 268 -137Q266 -146 258 -156L220 -206Q216 -212 210 -212Q203 -211 183 -206Z"  horiz-adv-x="352" vert-adv-y="1000"  />
      <glyph glyph-name="ldot" unicode="&#x140;" d="M188 -10Q132 -10 106 3Q79 15 71 47Q63 78 63 134L63 694L238 710L238 140Q238 128 245 123Q252 117 262 117Q268 117 282 119Q295 120 314 125L342 12Q268 -10 188 -10ZM386 282Q342 282 323 290Q303 298 299 317Q294 336 294 369Q294 402 299 421Q303 440 323 448Q342 456 386 456Q430 456 449 448Q468 440 473 421Q478 402 478 369Q478 336 473 317Q468 298 449 290Q430 282 386 282Z"  horiz-adv-x="461" vert-adv-y="1000"  />
      <glyph glyph-name="lslash" unicode="&#x142;" d="M311 125L339 12Q265 -10 185 -10Q129 -10 103 3Q76 15 68 47Q60 78 60 134L60 259L-1 228L-1 348L60 379L60 694L235 710L235 467L318 509L318 388L235 346L235 140Q235 128 242 123Q249 117 259 117Q265 117 279 119Q292 120 311 125Z"  horiz-adv-x="337" vert-adv-y="1000"  />
      <glyph glyph-name="m" unicode="&#x6d;" d="M743 505Q811 505 843 470Q874 434 874 359L874 0L699 0L699 317Q699 363 658 363Q641 363 613 354Q584 345 557 331L557 0L381 0L381 317Q381 363 341 363Q325 363 296 354Q267 345 240 331L240 0L64 0L64 496L206 496L227 448Q283 477 332 491Q381 505 426 505Q512 505 541 446Q653 505 743 505Z"  horiz-adv-x="933" vert-adv-y="1000"  />
      <glyph glyph-name="n" unicode="&#x6e;" d="M431 505Q500 505 533 470Q565 434 565 359L565 0L389 0L389 317Q389 363 347 363Q329 363 299 354Q269 344 240 330L240 0L64 0L64 496L206 496L227 448Q341 505 431 505Z"  horiz-adv-x="624" vert-adv-y="1000"  />
      <glyph glyph-name="nacute" unicode="&#x144;" d="M454 746L462 634L239 548L211 637ZM431 505Q500 505 533 470Q565 434 565 359L565 0L389 0L389 317Q389 363 347 363Q329 363 299 354Q269 344 240 330L240 0L64 0L64 496L206 496L227 448Q341 505 431 505Z"  horiz-adv-x="624" vert-adv-y="1000"  />
      <glyph glyph-name="ncaron" unicode="&#x148;" d="M472 735L498 654L315 544L126 655L160 734L315 660ZM431 505Q500 505 533 470Q565 434 565 359L565 0L389 0L389 317Q389 363 347 363Q329 363 299 354Q269 344 240 330L240 0L64 0L64 496L206 496L227 448Q341 505 431 505Z"  horiz-adv-x="624" vert-adv-y="1000"  />
      <glyph glyph-name="uni0146" unicode="&#x146;" d="M431 505Q500 505 533 470Q565 434 565 359L565 0L389 0L389 317Q389 363 347 363Q329 363 299 354Q269 344 240 330L240 0L64 0L64 496L206 496L227 448Q341 505 431 505ZM312 -50Q347 -50 362 -54Q377 -58 381 -68Q385 -77 385 -95L385 -117Q385 -128 383 -137Q381 -146 373 -156L335 -206Q331 -212 325 -212Q318 -211 298 -206Q279 -201 277 -198Q274 -194 278 -187L296 -155Q299 -149 299 -146Q299 -139 283 -138Q255 -136 247 -129Q238 -121 238 -95Q238 -77 242 -68Q246 -58 262 -54Q277 -50 312 -50Z"  horiz-adv-x="624" vert-adv-y="1000"  />
      <glyph glyph-name="ntilde" unicode="&#xf1;" d="M243 602Q218 602 196 590Q173 578 157 565L123 644Q144 666 176 683Q208 700 241 700Q274 700 300 691Q326 682 347 673Q368 664 387 664Q437 664 465 700L500 625Q484 597 453 582Q421 567 383 567Q351 567 329 576Q306 585 287 594Q267 602 243 602ZM431 505Q500 505 533 470Q565 434 565 359L565 0L389 0L389 317Q389 363 347 363Q329 363 299 354Q269 344 240 330L240 0L64 0L64 496L206 496L227 448Q341 505 431 505Z"  horiz-adv-x="624" vert-adv-y="1000"  />
      <glyph glyph-name="o" unicode="&#x6f;" d="M305 -10Q168 -10 105 53Q41 115 41 248Q41 382 105 444Q168 506 305 506Q442 506 506 444Q569 382 569 248Q569 114 506 52Q442 -10 305 -10ZM305 112Q340 112 359 124Q378 135 386 165Q393 195 393 248Q393 302 386 332Q378 361 359 373Q340 384 305 384Q254 384 236 355Q217 326 217 248Q217 169 236 141Q254 112 305 112Z"  horiz-adv-x="610" vert-adv-y="1000"  />
      <glyph glyph-name="oacute" unicode="&#xf3;" d="M452 634L229 548L201 637L444 746ZM305 -10Q168 -10 105 53Q41 115 41 248Q41 382 105 444Q168 506 305 506Q442 506 506 444Q569 382 569 248Q569 114 506 52Q442 -10 305 -10ZM305 112Q340 112 359 124Q378 135 386 165Q393 195 393 248Q393 302 386 332Q378 361 359 373Q340 384 305 384Q254 384 236 355Q217 326 217 248Q217 169 236 141Q254 112 305 112Z"  horiz-adv-x="610" vert-adv-y="1000"  />
      <glyph glyph-name="uni0275" unicode="&#x275;" d="M305 506Q442 506 506 444Q569 382 569 248Q569 114 506 52Q442 -10 305 -10Q168 -10 105 53Q41 115 41 248Q41 382 105 444Q168 506 305 506ZM305 384Q262 384 243 365Q224 345 219 294L391 294Q387 347 368 366Q349 384 305 384ZM305 112Q347 112 367 130Q386 148 391 197L219 197Q224 149 244 131Q264 112 305 112Z"  horiz-adv-x="610" vert-adv-y="1000"  />
      <glyph glyph-name="ocircumflex" unicode="&#xf4;" d="M301 622L145 547L119 628L301 738L491 627L457 548ZM305 -10Q168 -10 105 53Q41 115 41 248Q41 382 105 444Q168 506 305 506Q442 506 506 444Q569 382 569 248Q569 114 506 52Q442 -10 305 -10ZM305 112Q340 112 359 124Q378 135 386 165Q393 195 393 248Q393 302 386 332Q378 361 359 373Q340 384 305 384Q254 384 236 355Q217 326 217 248Q217 169 236 141Q254 112 305 112Z"  horiz-adv-x="610" vert-adv-y="1000"  />
      <glyph glyph-name="odieresis" unicode="&#xf6;" d="M181 560Q143 560 126 567Q108 574 104 591Q99 607 99 635Q99 664 104 680Q108 696 126 703Q143 710 181 710Q220 710 237 703Q254 696 259 680Q263 664 263 635Q263 607 259 591Q254 574 237 567Q220 560 181 560ZM428 560Q390 560 373 567Q355 574 351 591Q346 607 346 635Q346 664 351 680Q355 696 373 703Q390 710 428 710Q467 710 484 703Q501 696 506 680Q510 664 510 635Q510 607 506 591Q501 574 484 567Q467 560 428 560ZM305 -10Q168 -10 105 53Q41 115 41 248Q41 382 105 444Q168 506 305 506Q442 506 506 444Q569 382 569 248Q569 114 506 52Q442 -10 305 -10ZM305 112Q340 112 359 124Q378 135 386 165Q393 195 393 248Q393 302 386 332Q378 361 359 373Q340 384 305 384Q254 384 236 355Q217 326 217 248Q217 169 236 141Q254 112 305 112Z"  horiz-adv-x="610" vert-adv-y="1000"  />
      <glyph glyph-name="ograve" unicode="&#xf2;" d="M408 637L380 548L157 634L165 746ZM305 -10Q168 -10 105 53Q41 115 41 248Q41 382 105 444Q168 506 305 506Q442 506 506 444Q569 382 569 248Q569 114 506 52Q442 -10 305 -10ZM305 112Q340 112 359 124Q378 135 386 165Q393 195 393 248Q393 302 386 332Q378 361 359 373Q340 384 305 384Q254 384 236 355Q217 326 217 248Q217 169 236 141Q254 112 305 112Z"  horiz-adv-x="610" vert-adv-y="1000"  />
      <glyph glyph-name="ohungarumlaut" unicode="&#x151;" d="M340 696L179 539L90 578L226 732ZM566 696L405 539L317 578L452 732ZM305 -10Q168 -10 105 53Q41 115 41 248Q41 382 105 444Q168 506 305 506Q442 506 506 444Q569 382 569 248Q569 114 506 52Q442 -10 305 -10ZM305 112Q340 112 359 124Q378 135 386 165Q393 195 393 248Q393 302 386 332Q378 361 359 373Q340 384 305 384Q254 384 236 355Q217 326 217 248Q217 169 236 141Q254 112 305 112Z"  horiz-adv-x="610" vert-adv-y="1000"  />
      <glyph glyph-name="omacron" unicode="&#x14d;" d="M468 575L141 575L141 667L468 667ZM305 -10Q168 -10 105 53Q41 115 41 248Q41 382 105 444Q168 506 305 506Q442 506 506 444Q569 382 569 248Q569 114 506 52Q442 -10 305 -10ZM305 112Q340 112 359 124Q378 135 386 165Q393 195 393 248Q393 302 386 332Q378 361 359 373Q340 384 305 384Q254 384 236 355Q217 326 217 248Q217 169 236 141Q254 112 305 112Z"  horiz-adv-x="610" vert-adv-y="1000"  />
      <glyph glyph-name="oslash" unicode="&#xf8;" d="M536 516L494 454Q569 392 569 248Q569 114 506 52Q442 -10 305 -10Q238 -10 188 5L146 -57L79 -23L121 38Q41 99 41 248Q41 382 105 444Q168 506 305 506Q341 506 372 502Q402 498 428 489L469 550ZM217 248Q217 229 218 214Q219 198 221 185L351 377Q334 384 305 384Q254 384 236 355Q217 326 217 248ZM305 112Q340 112 359 124Q378 135 386 165Q393 195 393 248Q393 264 393 278Q392 291 391 302L265 118Q282 112 305 112Z"  horiz-adv-x="610" vert-adv-y="1000"  />
      <glyph glyph-name="otilde" unicode="&#xf5;" d="M376 567Q344 567 322 576Q299 585 280 594Q260 602 236 602Q211 602 189 590Q166 578 150 565L116 644Q137 666 169 683Q201 700 234 700Q267 700 293 691Q319 682 340 673Q361 664 380 664Q430 664 458 700L493 625Q477 597 446 582Q414 567 376 567ZM305 -10Q168 -10 105 53Q41 115 41 248Q41 382 105 444Q168 506 305 506Q442 506 506 444Q569 382 569 248Q569 114 506 52Q442 -10 305 -10ZM305 112Q340 112 359 124Q378 135 386 165Q393 195 393 248Q393 302 386 332Q378 361 359 373Q340 384 305 384Q254 384 236 355Q217 326 217 248Q217 169 236 141Q254 112 305 112Z"  horiz-adv-x="610" vert-adv-y="1000"  />
      <glyph glyph-name="oe" unicode="&#x153;" d="M881 269L881 197L569 197L569 189Q569 143 591 125Q613 107 669 107Q756 107 863 133L876 15Q828 3 765 -4Q701 -11 644 -11Q537 -11 476 35Q409 -11 305 -11Q168 -11 105 52Q41 114 41 247Q41 381 105 443Q168 505 305 505Q410 505 478 460Q546 505 648 505Q770 505 826 449Q881 393 881 269ZM644 389Q604 389 587 369Q569 349 569 304L569 294L715 294L715 305Q715 351 699 370Q682 389 644 389ZM305 111Q340 111 359 123Q378 134 386 164Q393 194 393 247Q393 301 386 331Q378 360 359 372Q340 383 305 383Q254 383 236 354Q217 325 217 247Q217 168 236 140Q254 111 305 111Z"  horiz-adv-x="927" vert-adv-y="1000"  />
      <glyph glyph-name="p" unicode="&#x70;" d="M371 503Q484 503 532 444Q580 385 580 248Q580 109 530 49Q479 -11 362 -11Q333 -11 301 -8Q268 -5 240 0L240 -192L64 -208L64 496L207 496L222 462Q286 503 371 503ZM322 112Q356 112 374 123Q392 134 399 164Q405 193 405 248Q405 302 399 331Q392 360 376 371Q359 381 328 381Q304 381 281 374Q258 366 240 353L240 122Q260 118 282 115Q303 112 322 112Z"  horiz-adv-x="623" vert-adv-y="1000"  />
      <glyph glyph-name="thorn" unicode="&#xfe;" d="M371 503Q484 503 532 444Q580 385 580 248Q580 109 530 49Q479 -11 362 -11Q333 -11 301 -8Q268 -5 240 0L240 -192L64 -208L64 694L240 710L240 473Q297 503 371 503ZM322 112Q356 112 374 123Q392 134 399 164Q405 193 405 248Q405 302 399 331Q392 360 376 371Q359 381 328 381Q304 381 281 374Q258 366 240 353L240 122Q260 118 282 115Q303 112 322 112Z"  horiz-adv-x="623" vert-adv-y="1000"  />
      <glyph glyph-name="q" unicode="&#x71;" d="M318 505Q366 505 431 502Q495 498 555 491L555 -192L379 -208L379 9Q305 -11 240 -11Q165 -11 122 13Q78 37 60 94Q41 151 41 248Q41 342 68 398Q95 454 156 480Q217 505 318 505ZM296 112Q331 112 379 128L379 381Q367 383 354 383Q340 383 322 383Q279 383 257 373Q234 362 226 333Q218 304 218 248Q218 190 224 161Q229 132 246 122Q263 112 296 112Z"  horiz-adv-x="618" vert-adv-y="1000"  />
      <glyph glyph-name="r" unicode="&#x72;" d="M397 505L397 366Q341 356 305 343Q269 330 240 308L240 0L64 0L64 496L206 496L230 441Q265 467 305 483Q345 498 397 505Z"  horiz-adv-x="417" vert-adv-y="1000"  />
      <glyph glyph-name="racute" unicode="&#x155;" d="M359 746L367 634L144 548L116 637ZM397 505L397 366Q341 356 305 343Q269 330 240 308L240 0L64 0L64 496L206 496L230 441Q265 467 305 483Q345 498 397 505Z"  horiz-adv-x="414" vert-adv-y="1000"  />
      <glyph glyph-name="rcaron" unicode="&#x159;" d="M389 735L415 654L232 544L43 655L77 734L232 660ZM64 496L206 496L230 441Q265 467 305 483Q345 498 397 505L397 366Q341 356 305 343Q269 330 240 308L240 0L64 0Z"  horiz-adv-x="414" vert-adv-y="1000"  />
      <glyph glyph-name="uni0157" unicode="&#x157;" d="M397 505L397 366Q341 356 305 343Q269 330 240 308L240 0L64 0L64 496L206 496L230 441Q265 467 305 483Q345 498 397 505ZM153 -50Q188 -50 203 -54Q218 -58 222 -68Q226 -77 226 -95L226 -117Q226 -128 224 -137Q222 -146 214 -156L176 -206Q172 -212 166 -212Q159 -211 139 -206Q120 -201 118 -198Q115 -194 119 -187L137 -155Q140 -149 140 -146Q140 -139 124 -138Q96 -136 88 -129Q79 -121 79 -95Q79 -77 83 -68Q87 -58 103 -54Q118 -50 153 -50Z"  horiz-adv-x="417" vert-adv-y="1000"  />
      <glyph glyph-name="s" unicode="&#x73;" d="M259 -11Q227 -11 186 -8Q144 -4 104 2Q64 7 35 14L59 129Q98 119 152 113Q205 107 248 107Q286 107 301 115Q316 123 316 143Q316 157 311 164Q306 171 288 177Q270 182 230 190Q154 207 114 225Q74 243 60 273Q45 303 45 354Q45 435 98 470Q150 505 271 505Q314 505 368 501Q421 496 458 489L443 375Q402 383 360 388Q318 392 285 392Q242 392 226 386Q209 379 209 362Q209 350 213 343Q217 336 232 331Q247 326 280 320Q343 308 382 295Q421 282 442 264Q463 245 471 218Q479 190 479 148Q479 -11 259 -11Z"  horiz-adv-x="513" vert-adv-y="1000"  />
      <glyph glyph-name="sacute" unicode="&#x15b;" d="M393 634L170 548L142 637L385 746ZM259 -11Q227 -11 186 -8Q144 -4 104 2Q64 7 35 14L59 129Q98 119 152 113Q205 107 248 107Q286 107 301 115Q316 123 316 143Q316 157 311 164Q306 171 288 177Q270 182 230 190Q154 207 114 225Q74 243 60 273Q45 303 45 354Q45 435 98 470Q150 505 271 505Q314 505 368 501Q421 496 458 489L443 375Q402 383 360 388Q318 392 285 392Q242 392 226 386Q209 379 209 362Q209 350 213 343Q217 336 232 331Q247 326 280 320Q343 308 382 295Q421 282 442 264Q463 245 471 218Q479 190 479 148Q479 -11 259 -11Z"  horiz-adv-x="513" vert-adv-y="1000"  />
      <glyph glyph-name="scaron" unicode="&#x161;" d="M442 654L259 544L70 655L104 734L259 660L416 735ZM259 -11Q227 -11 186 -8Q144 -4 104 2Q64 7 35 14L59 129Q98 119 152 113Q205 107 248 107Q286 107 301 115Q316 123 316 143Q316 157 311 164Q306 171 288 177Q270 182 230 190Q154 207 114 225Q74 243 60 273Q45 303 45 354Q45 435 98 470Q150 505 271 505Q314 505 368 501Q421 496 458 489L443 375Q402 383 360 388Q318 392 285 392Q242 392 226 386Q209 379 209 362Q209 350 213 343Q217 336 232 331Q247 326 280 320Q343 308 382 295Q421 282 442 264Q463 245 471 218Q479 190 479 148Q479 -11 259 -11Z"  horiz-adv-x="513" vert-adv-y="1000"  />
      <glyph glyph-name="scedilla" unicode="&#x15f;" d="M479 148Q479 -6 272 -11L266 -32Q333 -34 358 -50Q383 -65 383 -98L383 -137Q383 -177 354 -192Q325 -207 245 -207Q216 -207 189 -205Q162 -202 123 -196L141 -124Q194 -136 246 -136Q259 -136 263 -134Q266 -131 266 -124L266 -106Q266 -97 262 -95Q258 -93 244 -93Q237 -93 217 -96L158 -82L183 -7Q143 -4 104 2Q64 7 35 14L59 129Q98 119 152 113Q205 107 248 107Q286 107 301 115Q316 123 316 143Q316 157 311 164Q306 171 288 177Q270 182 230 190Q154 207 114 225Q74 243 60 273Q45 303 45 354Q45 435 98 470Q150 505 271 505Q314 505 368 501Q421 496 458 489L443 375Q402 383 360 388Q318 392 285 392Q242 392 226 386Q209 379 209 362Q209 350 213 343Q217 336 232 331Q247 326 280 320Q343 308 382 295Q421 282 442 264Q463 245 471 218Q479 190 479 148Z"  horiz-adv-x="513" vert-adv-y="1000"  />
      <glyph glyph-name="scircumflex" unicode="&#x15d;" d="M259 622L103 547L77 628L259 738L449 627L415 548ZM259 -11Q227 -11 186 -8Q144 -4 104 2Q64 7 35 14L59 129Q98 119 152 113Q205 107 248 107Q286 107 301 115Q316 123 316 143Q316 157 311 164Q306 171 288 177Q270 182 230 190Q154 207 114 225Q74 243 60 273Q45 303 45 354Q45 435 98 470Q150 505 271 505Q314 505 368 501Q421 496 458 489L443 375Q402 383 360 388Q318 392 285 392Q242 392 226 386Q209 379 209 362Q209 350 213 343Q217 336 232 331Q247 326 280 320Q343 308 382 295Q421 282 442 264Q463 245 471 218Q479 190 479 148Q479 -11 259 -11Z"  horiz-adv-x="513" vert-adv-y="1000"  />
      <glyph glyph-name="uni0219" unicode="&#x219;" d="M259 -11Q227 -11 186 -8Q144 -4 104 2Q64 7 35 14L59 129Q98 119 152 113Q205 107 248 107Q286 107 301 115Q316 123 316 143Q316 157 311 164Q306 171 288 177Q270 182 230 190Q154 207 114 225Q74 243 60 273Q45 303 45 354Q45 435 98 470Q150 505 271 505Q314 505 368 501Q421 496 458 489L443 375Q402 383 360 388Q318 392 285 392Q242 392 226 386Q209 379 209 362Q209 350 213 343Q217 336 232 331Q247 326 280 320Q343 308 382 295Q421 282 442 264Q463 245 471 218Q479 190 479 148Q479 -11 259 -11ZM244 -206Q225 -201 223 -198Q220 -194 224 -187L242 -155Q245 -149 245 -146Q245 -139 229 -138Q201 -136 193 -129Q184 -121 184 -95Q184 -77 188 -68Q192 -58 208 -54Q223 -50 258 -50Q293 -50 308 -54Q323 -58 327 -68Q331 -77 331 -95L331 -117Q331 -128 329 -137Q327 -146 319 -156L281 -206Q277 -212 271 -212Q264 -211 244 -206Z"  horiz-adv-x="513" vert-adv-y="1000"  />
      <glyph glyph-name="germandbls" unicode="&#xdf;" d="M449 -11Q369 -11 289 9L310 125Q375 106 432 106Q462 106 475 115Q488 123 488 143Q488 162 468 176Q447 189 417 202Q387 215 357 232Q326 249 306 276Q285 302 285 343Q285 382 302 408Q319 433 342 451Q365 469 382 487Q399 505 399 530Q399 591 318 591Q277 591 259 573Q240 554 240 513L240 0L64 0L64 506Q64 606 128 658Q191 710 312 710Q434 710 498 667Q561 623 561 540Q561 502 546 476Q530 450 510 432Q489 414 474 400Q458 386 458 371Q458 355 478 343Q498 331 527 317Q556 302 585 281Q614 260 634 227Q654 194 654 144Q654 62 606 26Q558 -11 449 -11Z"  horiz-adv-x="682" vert-adv-y="1000"  />
      <glyph glyph-name="t" unicode="&#x74;" d="M317 113Q334 113 356 117Q378 121 402 129L413 6Q379 -1 339 -6Q299 -10 264 -10Q177 -10 139 25Q100 59 100 129L100 372L26 372L26 496L100 496L100 621L276 637L276 496L413 496L397 372L276 372L276 158Q276 132 285 123Q293 113 317 113Z"  horiz-adv-x="444" vert-adv-y="1000"  />
      <glyph glyph-name="tcaron" unicode="&#x165;" d="M298 553L344 767L491 745L416 530ZM413 496L397 372L276 372L276 158Q276 132 285 123Q293 113 317 113Q334 113 356 117Q378 121 402 129L413 6Q379 -1 339 -6Q299 -10 264 -10Q177 -10 139 25Q100 59 100 129L100 372L26 372L26 496L100 496L100 621L276 637L276 496Z"  horiz-adv-x="432" vert-adv-y="1000"  />
      <glyph glyph-name="uni021B" unicode="&#x21b;" d="M317 113Q334 113 356 117Q378 121 402 129L413 6Q379 -1 339 -6Q299 -10 264 -10Q177 -10 139 25Q100 59 100 129L100 372L26 372L26 496L100 496L100 621L276 637L276 496L413 496L397 372L276 372L276 158Q276 132 285 123Q293 113 317 113ZM253 -50Q288 -50 303 -54Q318 -58 322 -68Q326 -77 326 -95L326 -117Q326 -128 324 -137Q322 -146 314 -156L276 -206Q272 -212 266 -212Q259 -211 239 -206Q220 -201 218 -198Q215 -194 219 -187L237 -155Q240 -149 240 -146Q240 -139 224 -138Q196 -136 188 -129Q179 -121 179 -95Q179 -77 183 -68Q187 -58 203 -54Q218 -50 253 -50Z"  horiz-adv-x="444" vert-adv-y="1000"  />
      <glyph glyph-name="u" unicode="&#x75;" d="M385 166L385 496L561 496L561 0L418 0L397 49Q282 -9 194 -9Q125 -9 92 27Q59 62 59 137L59 496L235 496L235 179Q235 133 278 133Q296 133 327 143Q357 153 385 166Z"  horiz-adv-x="625" vert-adv-y="1000"  />
      <glyph glyph-name="uacute" unicode="&#xfa;" d="M451 746L459 634L236 548L208 637ZM385 166L385 496L561 496L561 0L418 0L397 49Q282 -9 194 -9Q125 -9 92 27Q59 62 59 137L59 496L235 496L235 179Q235 133 278 133Q296 133 327 143Q357 153 385 166Z"  horiz-adv-x="624" vert-adv-y="1000"  />
      <glyph glyph-name="ubreve" unicode="&#x16d;" d="M312 544Q230 544 184 580Q138 615 138 678L235 689Q235 630 312 630Q389 630 389 689L485 678Q485 615 439 580Q393 544 312 544ZM385 166L385 496L561 496L561 0L418 0L397 49Q282 -9 194 -9Q125 -9 92 27Q59 62 59 137L59 496L235 496L235 179Q235 133 278 133Q296 133 327 143Q357 153 385 166Z"  horiz-adv-x="624" vert-adv-y="1000"  />
      <glyph glyph-name="ucircumflex" unicode="&#xfb;" d="M464 548L308 622L152 547L126 628L308 738L498 627ZM385 166L385 496L561 496L561 0L418 0L397 49Q282 -9 194 -9Q125 -9 92 27Q59 62 59 137L59 496L235 496L235 179Q235 133 278 133Q296 133 327 143Q357 153 385 166Z"  horiz-adv-x="624" vert-adv-y="1000"  />
      <glyph glyph-name="udieresis" unicode="&#xfc;" d="M188 560Q150 560 133 567Q115 574 111 591Q106 607 106 635Q106 664 111 680Q115 696 133 703Q150 710 188 710Q227 710 244 703Q261 696 266 680Q270 664 270 635Q270 607 266 591Q261 574 244 567Q227 560 188 560ZM435 560Q397 560 380 567Q362 574 358 591Q353 607 353 635Q353 664 358 680Q362 696 380 703Q397 710 435 710Q474 710 491 703Q508 696 513 680Q517 664 517 635Q517 607 513 591Q508 574 491 567Q474 560 435 560ZM385 166L385 496L561 496L561 0L418 0L397 49Q282 -9 194 -9Q125 -9 92 27Q59 62 59 137L59 496L235 496L235 179Q235 133 278 133Q296 133 327 143Q357 153 385 166Z"  horiz-adv-x="624" vert-adv-y="1000"  />
      <glyph glyph-name="ugrave" unicode="&#xf9;" d="M174 746L417 637L389 548L166 634ZM385 166L385 496L561 496L561 0L418 0L397 49Q282 -9 194 -9Q125 -9 92 27Q59 62 59 137L59 496L235 496L235 179Q235 133 278 133Q296 133 327 143Q357 153 385 166Z"  horiz-adv-x="624" vert-adv-y="1000"  />
      <glyph glyph-name="uhungarumlaut" unicode="&#x171;" d="M233 732L347 696L186 539L97 578ZM573 696L412 539L324 578L459 732ZM385 166L385 496L561 496L561 0L418 0L397 49Q282 -9 194 -9Q125 -9 92 27Q59 62 59 137L59 496L235 496L235 179Q235 133 278 133Q296 133 327 143Q357 153 385 166Z"  horiz-adv-x="624" vert-adv-y="1000"  />
      <glyph glyph-name="umacron" unicode="&#x16b;" d="M147 667L474 667L474 575L147 575ZM385 166L385 496L561 496L561 0L418 0L397 49Q282 -9 194 -9Q125 -9 92 27Q59 62 59 137L59 496L235 496L235 179Q235 133 278 133Q296 133 327 143Q357 153 385 166Z"  horiz-adv-x="624" vert-adv-y="1000"  />
      <glyph glyph-name="uogonek" unicode="&#x173;" d="M555 -127L564 -197Q536 -207 485 -207Q423 -207 386 -185Q349 -163 349 -126Q349 -53 428 0L418 0L397 49Q282 -9 194 -9Q125 -9 92 27Q59 62 59 137L59 496L235 496L235 179Q235 133 278 133Q296 133 327 143Q357 153 385 166L385 496L561 496L561 0L553 0Q513 -19 488 -47Q462 -74 462 -99Q462 -131 505 -131Q534 -131 555 -127Z"  horiz-adv-x="624" vert-adv-y="1000"  />
      <glyph glyph-name="uring" unicode="&#x16f;" d="M310 538Q257 538 224 565Q191 591 191 637Q191 681 224 709Q257 736 310 736Q366 736 398 709Q430 681 430 637Q430 593 398 566Q366 538 310 538ZM310 678Q266 678 266 637Q266 597 310 597Q356 597 356 637Q356 678 310 678ZM385 166L385 496L561 496L561 0L418 0L397 49Q282 -9 194 -9Q125 -9 92 27Q59 62 59 137L59 496L235 496L235 179Q235 133 278 133Q296 133 327 143Q357 153 385 166Z"  horiz-adv-x="624" vert-adv-y="1000"  />
      <glyph glyph-name="v" unicode="&#x76;" d="M296 161L420 496L598 496L393 0L196 0L-3 496L178 496Z"  horiz-adv-x="595" vert-adv-y="1000"  />
      <glyph glyph-name="w" unicode="&#x77;" d="M574 197L640 496L809 496L678 0L505 0L408 262L311 0L138 0L7 496L176 496L241 198L329 421L488 421Z"  horiz-adv-x="816" vert-adv-y="1000"  />
      <glyph glyph-name="wcircumflex" unicode="&#x175;" d="M558 548L402 622L246 547L220 628L402 738L592 627ZM574 197L640 496L809 496L678 0L505 0L408 262L311 0L138 0L7 496L176 496L241 198L329 421L488 421Z"  horiz-adv-x="816" vert-adv-y="1000"  />
      <glyph glyph-name="x" unicode="&#x78;" d="M383 253L578 0L390 0L293 136L194 0L7 0L199 251L13 496L199 496L293 366L387 496L571 496Z"  horiz-adv-x="586" vert-adv-y="1000"  />
      <glyph glyph-name="y" unicode="&#x79;" d="M296 181L411 496L593 496L305 -198L134 -198L219 -8L-4 496L178 496Z"  horiz-adv-x="589" vert-adv-y="1000"  />
      <glyph glyph-name="yacute" unicode="&#xfd;" d="M435 746L443 634L220 548L192 637ZM296 181L411 496L593 496L305 -198L134 -198L219 -8L-4 496L178 496Z"  horiz-adv-x="589" vert-adv-y="1000"  />
      <glyph glyph-name="ycircumflex" unicode="&#x177;" d="M445 548L289 622L133 547L107 628L289 738L479 627ZM296 181L411 496L593 496L305 -198L134 -198L219 -8L-4 496L178 496Z"  horiz-adv-x="589" vert-adv-y="1000"  />
      <glyph glyph-name="ydieresis" unicode="&#xff;" d="M171 560Q133 560 116 567Q98 574 94 591Q89 607 89 635Q89 664 94 680Q98 696 116 703Q133 710 171 710Q210 710 227 703Q244 696 249 680Q253 664 253 635Q253 607 249 591Q244 574 227 567Q210 560 171 560ZM418 560Q380 560 363 567Q345 574 341 591Q336 607 336 635Q336 664 341 680Q345 696 363 703Q380 710 418 710Q457 710 474 703Q491 696 496 680Q500 664 500 635Q500 607 496 591Q491 574 474 567Q457 560 418 560ZM296 181L411 496L593 496L305 -198L134 -198L219 -8L-4 496L178 496Z"  horiz-adv-x="589" vert-adv-y="1000"  />
      <glyph glyph-name="z" unicode="&#x7a;" d="M479 378L246 120L488 120L488 0L41 0L41 118L270 376L44 376L44 496L479 496Z"  horiz-adv-x="522" vert-adv-y="1000"  />
      <glyph glyph-name="zacute" unicode="&#x17a;" d="M402 746L410 634L187 548L159 637ZM479 378L246 120L488 120L488 0L41 0L41 118L270 376L44 376L44 496L479 496Z"  horiz-adv-x="522" vert-adv-y="1000"  />
      <glyph glyph-name="zcaron" unicode="&#x17e;" d="M420 735L446 654L263 544L74 655L108 734L263 660ZM479 378L246 120L488 120L488 0L41 0L41 118L270 376L44 376L44 496L479 496Z"  horiz-adv-x="522" vert-adv-y="1000"  />
      <glyph glyph-name="zdotaccent" unicode="&#x17c;" d="M262 560Q224 560 207 567Q189 574 185 591Q180 607 180 635Q180 664 185 680Q189 696 207 703Q224 710 262 710Q301 710 318 703Q335 696 340 680Q344 664 344 635Q344 607 340 591Q335 574 318 567Q301 560 262 560ZM479 378L246 120L488 120L488 0L41 0L41 118L270 376L44 376L44 496L479 496Z"  horiz-adv-x="522" vert-adv-y="1000"  />
      <glyph glyph-name="i.locl.TRK" unicode="i.locl.TRK" d="M154 560Q112 560 93 567Q74 574 70 591Q65 607 65 635Q65 664 70 680Q74 696 93 703Q112 710 154 710Q197 710 216 703Q234 696 239 680Q244 664 244 635Q244 607 239 591Q234 574 216 567Q197 560 154 560ZM243 0L67 0L67 496L243 496Z"  horiz-adv-x="310" vert-adv-y="1000"  />
      <glyph glyph-name="iacute_j.loclNLD" unicode="iacute_j.loclNLD" d="M301 634L78 548L50 637L293 746ZM620 634L397 548L369 637L612 746ZM243 0L67 0L67 496L243 496ZM322 -203L268 -90Q316 -74 339 -63Q362 -52 370 -37Q377 -22 377 4L377 496L553 496L553 -21Q553 -65 544 -92Q535 -119 511 -137Q486 -155 441 -170Q395 -184 322 -203Z"  horiz-adv-x="627" vert-adv-y="1000"  />
      <glyph glyph-name="f_f" unicode="f_f" d="M730 586Q696 586 681 573Q665 560 665 529L665 496L796 496L780 372L665 372L665 0L489 0L489 372L270 372L270 0L94 0L94 372L14 372L14 496L94 496L94 552Q94 632 144 670Q193 707 299 707Q332 707 365 705Q398 703 427 698L417 577Q366 586 334 586Q300 586 285 573Q270 560 270 529L270 496L489 496L489 552Q489 632 539 670Q589 707 695 707Q728 707 761 705Q794 703 823 698L812 577Q763 586 730 586Z"  horiz-adv-x="812" vert-adv-y="1000"  />
      <glyph glyph-name="f_f_i" unicode="f_f_i" d="M972 560Q930 560 911 567Q892 574 888 591Q883 607 883 635Q883 664 888 680Q892 696 911 703Q930 710 972 710Q1015 710 1034 703Q1052 696 1057 680Q1062 664 1062 635Q1062 607 1057 591Q1052 574 1034 567Q1015 560 972 560ZM489 496L489 552Q489 632 539 670Q589 707 695 707Q728 707 761 705Q794 703 823 698L812 577Q763 586 730 586Q696 586 681 573Q665 560 665 529L665 496L796 496L780 372L665 372L665 0L489 0L489 372L270 372L270 0L94 0L94 372L14 372L14 496L94 496L94 552Q94 632 144 670Q193 707 299 707Q332 707 365 705Q398 703 427 698L417 577Q366 586 334 586Q300 586 285 573Q270 560 270 529L270 496ZM1061 0L885 0L885 496L1061 496Z"  horiz-adv-x="1128" vert-adv-y="1000"  />
      <glyph glyph-name="f_f_l" unicode="f_f_l" d="M1132 125L1160 12Q1086 -10 1006 -10Q950 -10 924 3Q897 15 889 47Q881 78 881 134L881 694L1056 710L1056 140Q1056 128 1063 123Q1070 117 1080 117Q1086 117 1100 119Q1113 120 1132 125ZM489 496L489 552Q489 632 539 670Q589 707 695 707Q728 707 761 705Q794 703 823 698L812 577Q763 586 730 586Q696 586 681 573Q665 560 665 529L665 496L796 496L780 372L665 372L665 0L489 0L489 372L270 372L270 0L94 0L94 372L14 372L14 496L94 496L94 552Q94 632 144 670Q193 707 299 707Q332 707 365 705Q398 703 427 698L417 577Q366 586 334 586Q300 586 285 573Q270 560 270 529L270 496Z"  horiz-adv-x="1154" vert-adv-y="1000"  />
      </font>
</defs>
</svg>
